↑↓torrent.by
Поиск
Логин:  Регистрация
Пароль:

Хитмен. Последнее дело / Нокс уходит / Knox Goes Away (2023) BDRemux 1080p | D, P, A

download Скачать торрент-файл   magnet Магнитная ссылка Размер: 31.84 GB Добавлен: 2024-07-07 17:00
Пиры будут получены из сети DHT
Последний сидер был замечен 2024-07-18 01:09
Информация о фильме Название: Хитмен. Последнее дело Оригинальное название: Knox Goes Away Год выхода: 2023 Жанр: Триллер, криминал Режиссер: Майкл Китон В ролях: Майкл Китон, Аль Пачино, Марша Гей Харден, Джеймс Марсден, Джоанна Кулиг, Рэй МакКиннон, Дэннис Дуган, Лила Лорен, Сьюзи Накамура, Чад Донелла О фильме: Нокс - профессиональный киллер. Последние годы своей жизни он мечтал лишь об одном - забыть о том, что совершил. Но сейчас, когда деменция уничтожает его личность, хитмэну придётся приложить все силы, чтобы спасти от рук продажных копов своего сына. Счёт идет на часы. Он уже не помнит, кто перед ним, друг или враг, лишь указательный палец всё так же уверенно спускает курок. Страна: США, Brookstreet Pictures, Sugar23, Three Point Capital (TPC) Продолжительность: 01:54:45 Перевод 1: Дублированный (официальный) | ПИФАГОР Роли дублировали: Владимир Зайцев, Валерий Сторожик, Константин Карасик, Ульяна Чеботарь, Анастасия Лапина, Глеб Глушенков, Александр Хорлин, Даниил Эльдаров, Ирина Киреева, Дмитрий Лунёв, Владимир Ерёмин, Нана Саркисян, Ольга Зубкова, Александр Лаврентьев, Алексей Терехов, Анатолий Нокс, Валентина Варлашина, Мария Данилова, Юлия Иванова Перевод 2: Дублированный (неофициальный) | Soundmasters Перевод 3: Любительский (многоголосый закадровый) | Soundmasters Перевод 4: Авторский (одноголосый закадровый) | М. Яроцкий Cубтитры: Русские (Full), Английские (Full, SDH) Файл Тип релиза: BDRemux 1080p Контейнер: MKV Видео: AVC/H.264, 1920x1080, 34.7 Mbps, 23.976 fps Аудио 1: Русский | E-AC-3, 6 ch, 448 Kbps, 48.0 kHz Dub Пифагор Аудио 2: Русский | AC-3, 2.0 ch, 192 Kbps, 48.0 kHz Dub Soundmasters Аудио 3: Русский | AC-3, 2.0 ch, 192 Kbps, 48.0 kHz MVO Soundmasters Аудио 4: Русский | DTS, 6 ch, 1509 Kbps, 48.0 kHz AVO М. Яроцкий Аудио 5: Английский | DTS-HD MA, 6 ch, 2714 Kbps, 48.0 kHz, 24-bit (DTS Core 6 ch, 48 kHz, 1509 kbps, 24-bit) Формат субтитров: softsub (SRT)
[+] M/IGeneral Unique ID : 132282495604340579343653957155101064171 (0x6384AE93A329A1997AF7345016FBBBEB) Complete name : /Volumes/Promise Pegasus/Knox.Goes.Away.2023.BDRemux.1080p.pk.mkv Format : Matroska Format version : Version 4 File size : 31.8 GiB Duration : 1 h 54 min Overall bit rate mode : Variable Overall bit rate : 39.7 Mb/s Frame rate : 23.976 FPS Movie name : Knox Goes Away 2023 BDRemux 1080p pk Encoded date : 2024-07-06 11:03:21 UTC Writing application : mkvmerge v84.0 ('Sleeper') 64-bit Writing library : libebml v1.4.5 + libmatroska v1.7.1 Cover : Yes Attachments : cover.jpg Video ID : 1 Format : AVC Format/Info : Advanced Video Codec Format profile : High@L4.1 Format settings : CABAC / 4 Ref Frames Format settings, CABAC : Yes Format settings, Reference frames : 4 frames Format settings, Slice count : 4 slices per frame Codec ID : V_MPEG4/ISO/AVC Duration : 1 h 54 min Bit rate mode : Variable Bit rate : 34.7 Mb/s Maximum bit rate : 37.0 Mb/s Width : 1 920 pixels Height : 1 080 pixels Display aspect ratio : 16:9 Frame rate mode : Constant Frame rate : 23.976 (24000/1001) FPS Color space : YUV Chroma subsampling : 4:2:0 Bit depth : 8 bits Scan type : Progressive Bits/(Pixel*Frame) : 0.697 Time code of first frame : 00:59:59:00 Stream size : 27.8 GiB (87%) Language : English Default : Yes Forced : No Audio #1 ID : 2 Format : E-AC-3 Format/Info : Enhanced AC-3 Commercial name : Dolby Digital Plus Codec ID : A_EAC3 Duration : 1 h 54 min Bit rate mode : Constant Bit rate : 448 kb/s Channel(s) : 6 channels Channel layout : L R C LFE Ls Rs Sampling rate : 48.0 kHz Frame rate : 31.250 FPS (1536 SPF) Compression mode : Lossy Stream size : 368 MiB (1%) Title : Russian Dub Пифагор Language : Russian Service kind : Complete Main Default : Yes Forced : No Dialog Normalization : -26 dB compr : -0.28 dB dmixmod : Lo/Ro ltrtcmixlev : -3.0 dB ltrtsurmixlev : -3.0 dB lorocmixlev : -3.0 dB lorosurmixlev : -3.0 dB dialnorm_Average : -26 dB dialnorm_Minimum : -26 dB dialnorm_Maximum : -26 dB Audio #2 ID : 3 Format : AC-3 Format/Info : Audio Coding 3 Commercial name : Dolby Digital Codec ID : A_AC3 Duration : 1 h 54 min Bit rate mode : Constant Bit rate : 192 kb/s Channel(s) : 2 channels Channel layout : L R Sampling rate : 48.0 kHz Frame rate : 31.250 FPS (1536 SPF) Compression mode : Lossy Stream size : 158 MiB (0%) Title : Russian Dub Soundmasters Language : Russian Service kind : Complete Main Default : No Forced : No Dialog Normalization : -31 dB dialnorm_Average : -31 dB dialnorm_Minimum : -31 dB dialnorm_Maximum : -31 dB Audio #3 ID : 4 Format : AC-3 Format/Info : Audio Coding 3 Commercial name : Dolby Digital Codec ID : A_AC3 Duration : 1 h 54 min Bit rate mode : Constant Bit rate : 192 kb/s Channel(s) : 2 channels Channel layout : L R Sampling rate : 48.0 kHz Frame rate : 31.250 FPS (1536 SPF) Compression mode : Lossy Stream size : 158 MiB (0%) Title : Russian MVO Soundmasters Language : Russian Service kind : Complete Main Default : No Forced : No Dialog Normalization : -31 dB dialnorm_Average : -31 dB dialnorm_Minimum : -31 dB dialnorm_Maximum : -31 dB Audio #4 ID : 5 Format : DTS Format/Info : Digital Theater Systems Codec ID : A_DTS Duration : 1 h 54 min Bit rate mode : Constant Bit rate : 1 509 kb/s Channel(s) : 6 channels Channel layout : C L R Ls Rs LFE Sampling rate : 48.0 kHz Frame rate : 93.750 FPS (512 SPF) Bit depth : 24 bits Compression mode : Lossy Stream size : 1.21 GiB (4%) Title : Russian VO М. Яроцкий Language : Russian Default : No Forced : No Audio #5 ID : 6 Format : DTS XLL Format/Info : Digital Theater Systems Commercial name : DTS-HD Master Audio Codec ID : A_DTS Duration : 1 h 54 min Bit rate mode : Variable Bit rate : 2 714 kb/s Channel(s) : 6 channels Channel layout : C L R Ls Rs LFE Sampling rate : 48.0 kHz Frame rate : 93.750 FPS (512 SPF) Bit depth : 24 bits Compression mode : Lossless Stream size : 2.18 GiB (7%) Title : English Original Language : English Default : No Forced : No Text #1 ID : 7 Format : UTF-8 Codec ID : S_TEXT/UTF8 Codec ID/Info : UTF-8 Plain Text Duration : 1 h 45 min Bit rate : 79 b/s Frame rate : 0.222 FPS Count of elements : 1406 Stream size : 61.1 KiB (0%) Title : Russian full Language : Russian Default : No Forced : No Text #2 ID : 8 Format : UTF-8 Codec ID : S_TEXT/UTF8 Codec ID/Info : UTF-8 Plain Text Duration : 1 h 45 min Bit rate : 52 b/s Frame rate : 0.237 FPS Count of elements : 1500 Stream size : 40.9 KiB (0%) Title : English full Language : English Default : No Forced : No Text #3 ID : 9 Format : UTF-8 Codec ID : S_TEXT/UTF8 Codec ID/Info : UTF-8 Plain Text Duration : 1 h 47 min Bit rate : 57 b/s Frame rate : 0.261 FPS Count of elements : 1690 Stream size : 45.1 KiB (0%) Title : English SDH Language : English Default : No Forced : No Menu 00:00:00.000 : en:Chapter 01 00:09:45.126 : en:Chapter 02 00:17:54.657 : en:Chapter 03 00:22:30.182 : en:Chapter 04 00:29:25.806 : en:Chapter 05 00:35:17.490 : en:Chapter 06 00:41:30.488 : en:Chapter 07 00:46:57.982 : en:Chapter 08 00:52:54.880 : en:Chapter 09 00:59:42.996 : en:Chapter 10 01:09:17.820 : en:Chapter 11 01:16:08.439 : en:Chapter 12 01:21:22.002 : en:Chapter 13 01:30:58.495 : en:Chapter 14 01:40:05.041 : en:Chapter 15 01:47:41.330 : en:Chapter 16

Всего файлов в раздаче: 1 
Knox.Goes.Away.2023.BDRemux.1080p.pk.mkv31.84 GB

Похожие раздачи по запросу - Хитмен
2024-05-27 magnet Хитмен. Последнее дело / Нокс уходит / Knox Goes Away (2023) BDRip 1080p от MegaPeer | D, P | Пифагор, Soundmasters 10.37 GB ↑ 0 ↓ 0
2024-05-27 magnet Хитмен. Последнее дело / Нокс уходит / Knox Goes Away (2023) BDRip-AVC от DoMiNo & селезень | D | Пифагор 1.46 GB ↑ 1 ↓ 1
2024-05-26 magnet Хитмен. Последнее дело / Нокс уходит / Knox Goes Away (2023) BDRip от MegaPeer | D | Пифагор 1.46 GB ↑ 0 ↓ 0
2024-05-07 magnet Хитмен. Последнее дело / Нокс уходит / Knox Goes Away (2023) WEB-DL 1080p | D | Пифагор 7.13 GB ↑ 1 ↓ 0
2024-05-07 magnet Хитмен. Последнее дело / Нокс уходит / Knox Goes Away (2023) WEB-DL 2160р от Scarabey | 4K | SDR | D | Пифагор, Soundmasters 12.67 GB ↑ 0 ↓ 0
2024-05-04 magnet Хитмен. Последнее дело / Knox Goes Away (2023) WEB-DL 1080p от New-Team | D | Soundmasters 6.98 GB ↑ 0 ↓ 0
2024-04-16 magnet Хитмен. Последнее дело / Knox Goes Away (2023) WEB-DLRip 1080p от ExKinoRay | P 6.77 GB ↑ 0 ↓ 0

Комментарии


Зарегистрируйтесь чтобы добавить комментарий
Торрент клиент
byTorrent - программа для загрузки торрент-файлов.

Скачать byTorrent.exe (1,5 МБ)

Скачать byTorrent.zip (0,6 МБ)

Поддержи torrent.by
российских рублей
(300 российских рублей это 4$)

Обратная связь rss

End game ©