↑↓torrent.by
Поиск
Логин:  Регистрация
Пароль:

Linkin Park - Papercuts: Instrumentals [24-bit Hi-Res] (2024) FLAC

download Скачать торрент-файл   magnet Магнитная ссылка Размер: 1.33 GB Добавлен: 2024-07-07 17:00
Пиры будут получены из сети DHT
Последний сидер был замечен 2024-07-13 11:02
Название: Papercuts: Instrumentals Исполнитель: Linkin Park Год: 2024 Жанр: Rock, Alternative-Rock Издатель (лейбл): Warner Records Продолжительность: 01:07:49 Формат/Кодек: FLAC Тип рипа: Tracks Битрейт аудио: Lossless Разрядность: 24 Bit/192 kHz
[+] Трек-лист 01. Crawling (Instrumental) (00:03:29) 02. Faint (Instrumental) (00:02:43) 03. Numb / Encore (Instrumental) (00:03:25) 04. Papercut (Instrumental) (00:03:04) 05. Breaking The Habit (Instrumental) (00:03:15) 06. In The End (Instrumental) (00:03:36) 07. Bleed It Out (Instrumental) (00:02:44) 08. Somewhere I Belong (Instrumental) (00:03:34) 09. Waiting For The End (Instrumental) (00:03:51) 10. Castle Of Glass (Instrumental) (00:03:25) 11. One More Light (Instrumental) (00:04:15) 12. Burn It Down (Instrumental) (00:03:50) 13. What I've Done (Instrumental) (00:03:28) 14. Qwerty (Instrumental) (00:03:21) 15. One Step Closer (Instrumental) (00:02:36) 16. New Divide (Instrumental) (00:04:30) 17. Leave Out All The Rest (Instrumental) (00:03:19) 18. Lost (Instrumental) (00:03:21) 19. Numb (Instrumental) (00:03:06) 20. Friendly Fire (Instrumental) (00:02:57)
[+] DRM foobar2000 1.5.5 / Замер динамического диапазона (DR) 1.1.1 ------------------------------------------------------------------------------- Анализ: Linkin Park / Papercuts: Instrumentals -------------------------------------------------------------------------------- DR Пики RMS Продолжительность трека -------------------------------------------------------------------------------- DR6 -0.10 дБ -8.88 дБ 3:51 09-Waiting For The End (Instrumental) DR4 -1.37 дБ -8.38 дБ 3:25 10-Castle Of Glass (Instrumental) DR7 -0.20 дБ -11.31 дБ 4:15 11-One More Light (Instrumental) DR7 -0.10 дБ -9.19 дБ 3:50 12-Burn It Down (Instrumental) DR6 -0.10 дБ -8.83 дБ 3:28 13-What I've Done (Instrumental) DR6 -0.10 дБ -7.97 дБ 3:21 14-Qwerty (Instrumental) DR6 -0.10 дБ -7.40 дБ 4:30 16-New Divide (Instrumental) -------------------------------------------------------------------------------- Количество треков: 7 Реальные значения DR: DR6 Частота: 44100 Гц Каналов: 2 Разрядность: 24 Битрейт: 1644 кбит/с Кодек: FLAC ================================================================================ -------------------------------------------------------------------------------- Анализ: Jay Z / Papercuts: Instrumentals (1) Linkin Park / Papercuts: Instrumentals (2) -------------------------------------------------------------------------------- DR Пики RMS Продолжительность трека -------------------------------------------------------------------------------- DR13 0.00 дБ -14.34 дБ 3:25 03-Numb / Encore (Instrumental) DR6 0.00 дБ -8.69 дБ 2:57 20-Friendly Fire (Instrumental) -------------------------------------------------------------------------------- Количество треков: 2 Реальные значения DR: DR9 Частота: 48000 Гц Каналов: 2 Разрядность: 24 Битрейт: 1698 кбит/с Кодек: FLAC ================================================================================ -------------------------------------------------------------------------------- Анализ: Linkin Park / Papercuts: Instrumentals -------------------------------------------------------------------------------- DR Пики RMS Продолжительность трека -------------------------------------------------------------------------------- DR8 -0.10 дБ -10.68 дБ 3:29 01-Crawling (Instrumental) DR7 -0.10 дБ -7.57 дБ 3:04 04-Papercut (Instrumental) DR7 -0.10 дБ -8.85 дБ 3:36 06-In The End (Instrumental) DR8 -0.10 дБ -10.02 дБ 2:44 07-Bleed It Out (Instrumental) DR7 -0.10 дБ -8.28 дБ 2:36 15-One Step Closer (Instrumental) DR7 -0.10 дБ -9.53 дБ 3:19 17-Leave Out All The Rest (Instrumental) DR5 -0.10 дБ -7.46 дБ 3:21 18-Lost (Instrumental) -------------------------------------------------------------------------------- Количество треков: 7 Реальные значения DR: DR7 Частота: 96000 Гц Каналов: 2 Разрядность: 24 Битрейт: 3222 кбит/с Кодек: FLAC ================================================================================ -------------------------------------------------------------------------------- Анализ: Linkin Park / Papercuts: Instrumentals -------------------------------------------------------------------------------- DR Пики RMS Продолжительность трека -------------------------------------------------------------------------------- DR7 -0.10 дБ -8.57 дБ 2:43 02-Faint (Instrumental) DR5 -0.10 дБ -7.07 дБ 3:15 05-Breaking The Habit (Instrumental) DR5 -0.10 дБ -6.77 дБ 3:34 08-Somewhere I Belong (Instrumental) DR6 -0.10 дБ -7.80 дБ 3:06 19-Numb (Instrumental) -------------------------------------------------------------------------------- Количество треков: 4 Реальные значения DR: DR6 Частота: 192000 Гц Каналов: 2 Разрядность: 24 Битрейт: 5353 кбит/с Кодек: FLAC ================================================================================
Время раздачи: 24/7 (минимум до появления первых 3-5 скачавших, на раздачи не возвращаюсь) Первое правило участника файлообмена: "Скачал сам - дай скачать другому!"

Всего файлов в раздаче: 21 
01. Crawling (Instrumental).flac76.03 MB
02. Faint (Instrumental).flac104.82 MB
03. Numb - Encore (Instrumental).flac39.14 MB
04. Papercut (Instrumental).flac71.26 MB
05. Breaking the Habit (Instrumental).flac127.71 MB
06. In the End (Instrumental).flac79.43 MB
07. Bleed It Out (Instrumental).flac59.45 MB
08. Somewhere I Belong (Instrumental).flac139.63 MB
09. Waiting for the End (Instrumental).flac44.97 MB
10. CASTLE OF GLASS (Instrumental).flac38.96 MB
Показать все файлы

Похожие раздачи по запросу - Linkin
2024-03-14 magnet Linkin Park - LOST DEMOS (2023) MP3 111.42 MB ↑ 0 ↓ 0
2023-03-12 magnet Linkin Park - Hybrid Theory [DMD Album + 3 Bonus Tracks] (2023) FLAC 357.36 MB ↑ 0 ↓ 0

Комментарии


Зарегистрируйтесь чтобы добавить комментарий
Торрент клиент
byTorrent - программа для загрузки торрент-файлов.

Скачать byTorrent.exe (1,5 МБ)

Скачать byTorrent.zip (0,6 МБ)

Поддержи torrent.by
российских рублей
(300 российских рублей это 4$)

Обратная связь rss

End game ©