↑↓torrent.by
Поиск
Логин:  Регистрация
Пароль:

Резервная копия / Bod obnovy / Restore Point (2023) BDRip 720p от DoMiNo & селезень | P2 | ViruseProject

download Скачать торрент-файл   magnet Магнитная ссылка Размер: 4.53 GB Добавлен: 2024-07-07 17:00
Пиры будут получены из сети DHT
Последний сидер был замечен 2024-07-18 23:23
Информация о фильме Название: Резервная копия Оригинальное название: Bod obnovy / Restore Point Год выхода: 2023 Жанр: фантастика, триллер, драма, криминал Режиссер: Роберт Хлоц В ролях: Андреа Могилова, Матей Гадек, Милан Ондрик, Вацлав Неужил, Карел Добры, Агата Крюстуфкова, Катажина Заваджка, Ивета Душкова, Ян Власак, Ричард Станке и т.д. О фильме: 2041 год. Благодаря научному прорыву человечество получило возможность возвращать к жизни жертв жестоких преступлений. Гениальный ученый разработал инновационную технологию восстановления человека, которая возможна, если тот создавал резервные копии данных своего мозга каждые 48 часов. Но однажды разработчик и сам становится жертвой убийства. За расследование преступления берется детектив, ему предстоит распутать цепочку загадочных обстоятельств смерти ученого. Страна: Чехия, Словакия, Польша, Сербия, D.N.A. Production, Film Kolektiv, Film Produkcja, Mali Budo Продолжительность: 01:54:52 Перевод: Профессиональный (двухголосый, закадровый) | ViruseProject Субтитры: Русские, английские, чешские Файл Формат: Matroska Качество: BDRip 720p Видео: 1280x536 at 23.976 fps, x264@L4.1, ~4748 kbps Аудио 1: AC3, 6 ch, ~448 kbps - | Русский | Аудио 2: AC3, 6 ch, ~448 kbps - | Чешский | Формат субтитров: softsub (SRT) ***Рип от: -=DoMiNo=-
[+] M/IGeneral Unique ID : 158308577765188551584858917511210854928 (0x77191F7F5C8F48773668F10AC595EA10) Complete name : S:Restore.Point.2023.DVO.BDRip.720p.x264.seleZen.mkv Format : Matroska Format version : Version 4 File size : 4.53 GiB Duration : 1 h 54 min Overall bit rate : 5 645 kb/s Frame rate : 23.976 FPS Movie name : Restore.Point.2023.DVO.BDRip.720p.x264.seleZen Encoded date : 2024-03-14 17:29:16 UTC Writing application : mkvmerge v83.0 ('Circle Of Friends') 64-bit Writing library : libebml v1.4.5 + libmatroska v1.7.1 Cover : Yes Attachments : cover.jpg / small_cover.jpg Video ID : 1 Format : AVC Format/Info : Advanced Video Codec Format profile : High@L4.1 Format settings : CABAC / 12 Ref Frames Format settings, CABAC : Yes Format settings, Reference : 12 frames Codec ID : V_MPEG4/ISO/AVC Duration : 1 h 54 min Bit rate : 4 748 kb/s Width : 1 280 pixels Height : 536 pixels Display aspect ratio : 2.40:1 Frame rate mode : Constant Frame rate : 23.976 (24000/1001) FPS Color space : YUV Chroma subsampling : 4:2:0 Bit depth : 8 bits Scan type : Progressive Bits/(Pixel*Frame) : 0.289 Stream size : 3.81 GiB (84%) Title : -=DoMiNo=- Writing library : x264 core 164 r3179+58M 2d8d988 t_mod_New Encoding settings : cabac=1 / ref=12 / deblock=1:-2:-2 / analyse=0x3:0x133 / me=umh / subme=10 / psy=1 / fade_compensate=0.00 / psy_rd=1.05:0.03 / mixed_ref=1 / me_range=32 / chroma_me=1 / trellis=2 / 8x8dct=1 / cqm=0 / deadzone=21,11 / fast_pskip=0 / chroma_qp_offset=-3 / threads=17 / lookahead_threads=4 / sliced_threads=0 / nr=0 / decimate=0 / interlaced=0 / bluray_compat=0 / constrained_intra=0 / fgo=0 / bframes=10 / b_pyramid=2 / b_adapt=2 / b_bias=0 / direct=3 / weightb=1 / open_gop=0 / weightp=2 / keyint=250 / keyint_min=23 / scenecut=40 / intra_refresh=0 / rc_lookahead=60 / rc=crf / mbtree=0 / crf=16.0000 / qcomp=0.60 / qpmin=0:0:0 / qpmax=69:69:69 / qpstep=4 / vbv_maxrate=50000 / vbv_bufsize=62500 / crf_max=0.0 / nal_hrd=none / filler=0 / ip_ratio=1.40 / pb_ratio=1.30 / aq=3:0.90 / aq-sensitivity=10.00 / aq-factor=1.00:1.00:1.00:1.00 / aq2=0 / aq3=0 Language : English Default : Yes Forced : No Color range : Limited Color primaries : BT.709 Transfer characteristics : BT.709 Matrix coefficients : BT.709 Audio #1 ID : 2 Format : AC-3 Format/Info : Audio Coding 3 Commercial name : Dolby Digital Codec ID : A_AC3 Duration : 1 h 54 min Bit rate mode : Constant Bit rate : 448 kb/s Channel(s) : 6 channels Channel layout : L R C LFE Ls Rs Sampling rate : 48.0 kHz Frame rate : 31.250 FPS (1536 SPF) Compression mode : Lossy Stream size : 368 MiB (8%) Title : ViruseProject Language : Russian Service kind : Complete Main Default : Yes Forced : No Audio #2 ID : 3 Format : AC-3 Format/Info : Audio Coding 3 Commercial name : Dolby Digital Codec ID : A_AC3 Duration : 1 h 54 min Bit rate mode : Constant Bit rate : 448 kb/s Channel(s) : 6 channels Channel layout : L R C LFE Ls Rs Sampling rate : 48.0 kHz Frame rate : 31.250 FPS (1536 SPF) Compression mode : Lossy Stream size : 368 MiB (8%) Language : Czech Service kind : Complete Main Default : No Forced : No Text #1 ID : 4 Format : UTF-8 Codec ID : S_TEXT/UTF8 Codec ID/Info : UTF-8 Plain Text Duration : 1 h 53 min Bit rate : 73 b/s Frame rate : 0.177 FPS Count of elements : 1205 Stream size : 60.9 KiB (0%) Title : Full Language : Russian Default : No Forced : No Text #2 ID : 5 Format : UTF-8 Codec ID : S_TEXT/UTF8 Codec ID/Info : UTF-8 Plain Text Duration : 1 h 45 min Bit rate : 45 b/s Frame rate : 0.149 FPS Count of elements : 939 Stream size : 34.7 KiB (0%) Title : English (SRT) Language : English Default : No Forced : No Text #3 ID : 6 Format : UTF-8 Codec ID : S_TEXT/UTF8 Codec ID/Info : UTF-8 Plain Text Duration : 1 h 51 min Bit rate : 49 b/s Frame rate : 0.158 FPS Count of elements : 1054 Stream size : 40.3 KiB (0%) Title : Czech Language : Czech Default : No Forced : No Menu 00:00:00.000 : en:Chapter 1 00:06:07.325 : en:Chapter 2 00:12:13.107 : en:Chapter 3 00:21:13.772 : en:Chapter 4 00:23:12.057 : en:Chapter 5 00:32:27.946 : en:Chapter 6 00:36:20.595 : en:Chapter 7 00:45:30.603 : en:Chapter 8 00:49:45.858 : en:Chapter 9 00:55:08.138 : en:Chapter 10 01:05:18.456 : en:Chapter 11 01:08:47.373 : en:Chapter 12 01:14:50.152 : en:Chapter 13 01:22:35.534 : en:Chapter 14 01:29:06.800 : en:Chapter 15 01:35:07.410 : en:Chapter 16 01:42:30.936 : en:Chapter 17 01:48:24.915 : en:Chapter 18
Релиз: Присоединяйся к: Кликай на баннеры.

Всего файлов в раздаче: 1 
Restore.Point.2023.DVO.BDRip.720p.x264.seleZen.mkv4.53 GB

Похожие раздачи по запросу - Резервная
2024-03-15 magnet Резервная копия / Bod obnovy / Restore Point (2023) BDRip от New-Team | P2 | ViruseProject 1.46 GB ↑ 0 ↓ 0

Комментарии


Зарегистрируйтесь чтобы добавить комментарий
Торрент клиент
byTorrent - программа для загрузки торрент-файлов.

Скачать byTorrent.exe (1,5 МБ)

Скачать byTorrent.zip (0,6 МБ)

Поддержи torrent.by
российских рублей
(300 российских рублей это 4$)

Обратная связь rss

End game ©