↑↓torrent.by
Поиск
Логин:  Регистрация
Пароль:

Десантура [01-08 из 08] (2009) DVDRip-AVC

download Скачать торрент-файл   magnet Магнитная ссылка Размер: 5.18 GB Добавлен: 2024-07-07 17:00
Пиры будут получены из сети DHT
Последний сидер был замечен сегодня в 04:40
Название: Десантура Год выхода: 2009 Жанр: Боевик, военный, история Режиссер: Олег Базилов, Виталий Воробьев В ролях: Егор Бероев, Кирилл Плетнёв, Никита Емшанов, Анна Снаткина, Екатерина Федулова, Мария Куликова, Борис Миронов, Александр Клюквин, Вадим Колганов, Галина Бокашевская, Юрий Шлыков, Екатерина Никитина, Михаил Тарабукин, Алексей Вертков О фильме: Абхазия, Афганистан, Чечня - наши герои там, где другим не пройти. Война подступила к самым границам России. Бывшие республики Союза охвачены огнем. Но есть десантные войска, и нет задач невыполнимых. Сильнее личных невзгод и надвигающегося распада их воля к победе. Страна: Россия Студия: Action Art, Дирекция Кино Продолжительность: 8 x ~ 00:51:00 Кодек: х264 Качество: DVDRip-AVC Видео: 720x434@768x434, 25 fps, MPEG-4 AVC, ~1705 Кбит/с Аудио: 48,0 КГц, AC3, 2 ch, ~192 Кбит/с
[+] Скриншоты
[+] Инфо файл Общее Уникальный идентификатор : 150102728969293578795911794440487613738 (0x70ECBBEA69ED5ADB5E9D0EE55B3CB52A) Полное имя : D:КиноДесантураДесантура - 01.mkv Формат : Matroska Версия формата : Version 4 Размер файла : 705 Мбайт Продолжительность : 51 м. 56 с. Общий поток : 1 899 Кбит/сек Частота кадров : 25,000 кадров/сек Название фильма : Десантура - 01 / 2009 / DVDRip (AVC) / Агентик Дата кодирования : 2018-11-18 08:43:56 UTC Программа кодирования : mkvmerge v28.2.0 ('The Awakening') 32-bit Библиотека кодирования : libebml v1.3.6 + libmatroska v1.4.9 Видео Идентификатор : 1 Формат : AVC Формат/Информация : Advanced Video Codec Профиль формата : High@L4 Настройки формата : CABAC / 10 Ref Frames Параметр CABAC формата : Да Параметр RefFrames формата : 10 кадров Идентификатор кодека : V_MPEG4/ISO/AVC Продолжительность : 51 м. 56 с. Битрейт : 1 705 Кбит/сек Ширина : 720 пикселей Высота : 434 пикселя Соотношение сторон : 16:9 Режим частоты кадров : Постоянный Частота кадров : 25,000 кадров/сек Цветовое пространство : YUV Субдискретизация насыщенности : 4:2:0 Битовая глубина : 8 бит Тип развёртки : Прогрессивная Бит/(Пиксели*Кадры) : 0.218 Размер потока : 633 Мбайт (90%) Заголовок : Рип от Агентик Библиотека кодирования : x264 core 157 r2901M 7d0ff22 Настройки программы : cabac=1 / ref=10 / deblock=1:0:0 / analyse=0x3:0x133 / me=umh / subme=10 / psy=1 / psy_rd=1.00:0.20 / mixed_ref=1 / me_range=40 / chroma_me=1 / trellis=2 / 8x8dct=1 / cqm=1 / deadzone=20,10 / fast_pskip=1 / chroma_qp_offset=-3 / threads=3 / lookahead_threads=1 / sliced_threads=0 / nr=0 / decimate=1 / interlaced=0 / bluray_compat=0 / constrained_intra=0 / bframes=10 / b_pyramid=2 / b_adapt=2 / b_bias=0 / direct=3 / weightb=1 / open_gop=0 / weightp=2 / keyint=250 / keyint_min=25 / scenecut=40 / intra_refresh=0 / rc_lookahead=40 / rc=2pass / mbtree=1 / bitrate=1705 / ratetol=1.0 / qcomp=0.60 / qpmin=4 / qpmax=60 / qpstep=10 / cplxblur=20.0 / qblur=0.5 / ip_ratio=1.40 / aq=3:1.00 Язык : Russian Default : Да Forced : Нет Цветовой диапазон : Limited Аудио Идентификатор : 2 Формат : AC-3 Формат/Информация : Audio Coding 3 Коммерческое название : Dolby Digital Идентификатор кодека : A_AC3 Продолжительность : 51 м. 55 с. Вид битрейта : Постоянный Битрейт : 192 Кбит/сек Каналы : 2 канала Channel layout : L R Частота : 48,0 КГц Частота кадров : 31,250 кадров/сек (1536 SPF) Метод сжатия : С потерями Размер потока : 71,3 Мбайт (10%) Заголовок : Русский Язык : Russian Service kind : Complete Main Default : Да Forced : Нет Меню 00:00:00.000 : Глава 1 00:12:38.240 : Глава 2 00:28:42.159 : Глава 3 00:42:55.720 : Глава 4

Всего файлов в раздаче: 8 
Десантура - 01.mkv705.42 MB
Десантура - 02.mkv628.04 MB
Десантура - 03.mkv616.19 MB
Десантура - 04.mkv653.99 MB
Десантура - 05.mkv699.82 MB
Десантура - 06.mkv668.20 MB
Десантура - 07.mkv604.67 MB
Десантура - 08.mkv725.38 MB

Комментарии


Зарегистрируйтесь чтобы добавить комментарий
Торрент клиент
byTorrent - программа для загрузки торрент-файлов.

Скачать byTorrent.exe (1,5 МБ)

Скачать byTorrent.zip (0,6 МБ)

Поддержи torrent.by
российских рублей
(300 российских рублей это 4$)

Обратная связь rss

End game ©