↑↓torrent.by
Поиск
Логин:  Регистрация
Пароль:

Пять фунтов искупления / 5lbs of Pressure (2024) WEB-DL 1080p | D

download Скачать торрент-файл   magnet Магнитная ссылка Размер: 4.23 GB Добавлен: 2024-07-07 17:00
Пиры будут получены из сети DHT
Последний сидер был замечен сегодня в 07:27
Информация о фильме Название: Пять фунтов искупления Оригинальное название: 5lbs of Pressure Год выпуска: 2024 Жанр: триллер, мелодрама, криминал Выпущено: США / Intrinsic Value Films, Paint Night Productions, Dark Dreams Entertainment Режиссер: Фил Эллокко В ролях: Люк Эванс, Рори Калкин, Алекс Петтифер, Руди Панкоу, Стефани Леонидас, Саванна Штейн, Зак Вайнштейн, Оливия Карратерс, Лоррэйн Барроуз, Джули Серда Описание: Отсидев срок за убийство, Адам возвращается в свой старый район, чтобы найти сына, который не догадывается о его существовании. Но брат человека, убитого Адамом много лет назад, жаждет мести и пойдет на всё. Продолжительность: 01:47:07 Перевод: Дублированный (CPI Films) Субтитры: Русские (forced hardsub) Файл Формат: MKV Качество: WEB-DL 1080p | Локализованная версия Видео: AVC/H.264, 1920x804, ~5000 Kbps Аудио 1: AC3, 6 ch, 384 Kbps - Русский (DUB) Аудио 2: E-AC3, 6 ch, 384 Kbps - Русский (DUB) Релиз от: karfagen1975
[+] MediaInfo:General Unique ID : 100753400508019950776542373249458410811 (0x4BCC662BA96078FCF62DE9A1A584953B) Complete name : 5lbs.of.Pressure.2024.WEB-DL.1080p.mkv Format : Matroska Format version : Version 4 File size : 4.23 GiB Duration : 1 h 47 min Overall bit rate : 5 658 kb/s Encoded date : UTC 2024-07-07 08:13:38 Writing application : mkvmerge v75.0.0 ('Goliath') 64-bit Writing library : libebml v1.4.4 + libmatroska v1.7.1 Video ID : 1 Format : AVC Format/Info : Advanced Video Codec Format profile : High@L4 Format settings : CABAC / 3 Ref Frames Format settings, CABAC : Yes Format settings, Reference frames : 3 frames Codec ID : V_MPEG4/ISO/AVC Duration : 1 h 47 min Bit rate : 5 000 kb/s Width : 1 920 pixels Height : 804 pixels Display aspect ratio : 2.40:1 Frame rate mode : Constant Frame rate : 24.000 FPS Color space : YUV Chroma subsampling : 4:2:0 Bit depth : 8 bits Scan type : Progressive Bits/(Pixel*Frame) : 0.135 Stream size : 3.66 GiB (86%) Title : Пять фунтов искупления (2024) WEB-DL 1080p Writing library : x264 core 164 r3095 baee400 Encoding settings : cabac=1 / ref=4 / deblock=1:1:1 / analyse=0x3:0x133 / me=umh / subme=9 / psy=1 / psy_rd=0.40:1.00 / mixed_ref=1 / me_range=24 / chroma_me=1 / trellis=0 / 8x8dct=1 / cqm=0 / deadzone=21,11 / fast_pskip=1 / chroma_qp_offset=-2 / threads=3 / lookahead_threads=1 / sliced_threads=0 / nr=0 / decimate=1 / interlaced=0 / bluray_compat=0 / stitchable=1 / constrained_intra=0 / bframes=8 / b_pyramid=1 / b_adapt=0 / b_bias=0 / direct=3 / weightb=1 / open_gop=0 / weightp=2 / keyint=72 / keyint_min=37 / scenecut=0 / intra_refresh=0 / rc_lookahead=40 / rc=2pass / mbtree=1 / bitrate=5000 / ratetol=1.0 / qcomp=0.80 / qpmin=1 / qpmax=69 / qpstep=4 / cplxblur=20.0 / qblur=0.5 / vbv_maxrate=7500 / vbv_bufsize=10000 / nal_hrd=none / filler=0 / ip_ratio=1.40 / aq=1:1.00 Language : English Default : Yes Forced : No Color range : Limited Color primaries : BT.709 Transfer characteristics : BT.709 Matrix coefficients : BT.709 Audio #1 ID : 2 Format : AC-3 Format/Info : Audio Coding 3 Commercial name : Dolby Digital Codec ID : A_AC3 Duration : 1 h 47 min Bit rate mode : Constant Bit rate : 384 kb/s Channel(s) : 6 channels Channel layout : L R C LFE Ls Rs Sampling rate : 48.0 kHz Frame rate : 31.250 FPS (1536 SPF) Compression mode : Lossy Stream size : 294 MiB (7%) Title : DUB (CPI Films) Language : Russian Service kind : Complete Main Default : No Forced : No Audio #2 ID : 3 Format : E-AC-3 Format/Info : Enhanced AC-3 Commercial name : Dolby Digital Plus Codec ID : A_EAC3 Duration : 1 h 47 min Bit rate mode : Constant Bit rate : 384 kb/s Channel(s) : 6 channels Channel layout : L R C LFE Ls Rs Sampling rate : 48.0 kHz Frame rate : 31.250 FPS (1536 SPF) Compression mode : Lossy Stream size : 294 MiB (7%) Title : DUB (CPI Films) Language : Russian Service kind : Complete Main Default : No Forced : No
[+] Скриншоты
[+] Дополнительные скриншоты:

Всего файлов в раздаче: 1 
5lbs.of.Pressure.2024.WEB-DL.1080p.mkv4.23 GB

Похожие раздачи по запросу - Пять
2024-07-10 magnet Юрий Коваль - Приключения Васи Куролесова; Пять похищенных монахов; Промах гражданина Лошакова (2014) MP3 1.16 GB ↑ 0 ↓ 0
2024-07-08 magnet Пять фунтов искупления / 5lbs of Pressure (2024) WEB-DLRip от DoMiNo & селезень | D | CPI Films | Локализованная версия 1.46 GB ↑ 0 ↓ 0
2024-07-08 magnet Пять фунтов искупления / 5lbs of Pressure (2024) WEB-DLRip от New-Team | D | Локализованная версия 1.46 GB ↑ 0 ↓ 0
2024-07-07 magnet Пять фунтов искупления / 5lbs of Pressure (2024) WEB-DLRip-AVC | D | Локализованный видеоряд 1.46 GB ↑ 0 ↓ 0
2024-03-29 magnet Пять минут тишины. Море и горы / Сезон: 5 / Серии: 1-24 из 24 [2022-2023, драма, приключения, HDTVRip-AVC] от Aleksan55 14.66 GB ↑ 0 ↓ 0
2024-01-19 magnet Пять процентов (2023) WEB-DLRip | OKKO 746.85 MB ↑ 0 ↓ 0
2024-01-18 magnet Пять процентов (2023) WEB-DL 1080p от ELEKTRI4KA 1К3.97 GB ↑ 0 ↓ 0

Комментарии


Зарегистрируйтесь чтобы добавить комментарий
Торрент клиент
byTorrent - программа для загрузки торрент-файлов.

Скачать byTorrent.exe (1,5 МБ)

Скачать byTorrent.zip (0,6 МБ)

Поддержи torrent.by
российских рублей
(300 российских рублей это 4$)

Обратная связь rss

End game ©