↑↓torrent.by
Поиск
Логин:  Регистрация
Пароль:

Список подозреваемых / Могильник / Boneyard (2024) WEB-DLRip от DoMiNo & селезень | P | TVShows

download Скачать торрент-файл   magnet Магнитная ссылка Размер: 1.46 GB Раздают: 0 Качают: 1 Добавлен: 2024-07-07 17:00
Пиры будут получены из сети DHT
Последний сидер был замечен вчера в 08:41
Информация о фильме Название: Список подозреваемых / Могильник Оригинальное название: Boneyard Год выхода: 2024 Жанр: боевик, триллер, драма, криминал, детектив Режиссер: Азиф Акбар В ролях: Брайан Ван Холт, Мэл Гибсон, Нора Зеетнер, Габриэль Хоф, Фифти Сент, Спайс Уильямс, Уэстон Кейдж, Майкл Сироу, Шон Патрик Брайан, Бренна Мари Нарайан и др. О фильме: Лучшие агенты ФБР и полиция разыскивают серийного преступника, жестоко убившего 11 женщин. След удается взять только детективу Ортега, но после того, как пропадает его племянница, дело принимает еще более опасный поворот. Под подозрением находится каждый, кто ведет расследование. Страна: США Продолжительность: 01:36:44 Перевод: Профессиональный (многоголосый, закадровый) | TVShows Файл Формат: AVI Качество: WEB-DLRip Видео: 720x304 at 23.976 fps, XviD 69, ~1765 kbps Аудио: AC3, 6 ch, ~384 kbps - | Русский | Субтитры: Нет ***Рип от: -=DoMiNo=-
[+] M/IGeneral Complete name : U:Boneyard.2024.MVO.WEB-DLRip.x264.seleZen.avi Format : AVI Format/Info : Audio Video Interleave Format settings : BitmapInfoHeader / WaveFormatEx File size : 1.46 GiB Duration : 1 h 36 min Overall bit rate : 2 158 kb/s Frame rate : 23.976 FPS Movie name : Boneyard.2024.WEB-DLRip.x264.seleZen Writing application : VirtualDubModRus 1.5.10.2 (build 2542/release) Writing library : VirtualDubMod build 2542/release Copyright : -=DoMiNo=- Video ID : 0 Format : MPEG-4 Visual Format profile : Advanced Simple@L5 Format settings : BVOP1 / Custom Matrix Format settings, BVOP : 1 Format settings, QPel : No Format settings, GMC : No warppoints Format settings, Matrix : Custom Codec ID : XVID Codec ID/Hint : XviD Duration : 1 h 36 min Bit rate : 1 765 kb/s Width : 720 pixels Height : 304 pixels Display aspect ratio : 2.40:1 Frame rate : 23.976 (24000/1001) FPS Color space : YUV Chroma subsampling : 4:2:0 Bit depth : 8 bits Scan type : Progressive Compression mode : Lossy Bits/(Pixel*Frame) : 0.336 Stream size : 1.19 GiB (82%) Writing library : XviD 69 Audio ID : 1 Format : AC-3 Format/Info : Audio Coding 3 Commercial name : Dolby Digital Codec ID : 2000 Duration : 1 h 36 min Bit rate mode : Constant Bit rate : 384 kb/s Channel(s) : 6 channels Channel layout : L R C LFE Ls Rs Sampling rate : 48.0 kHz Frame rate : 31.250 FPS (1536 SPF) Compression mode : Lossy Stream size : 266 MiB (18%) Alignment : Split across interleaves Interleave, duration : 42 ms (1.00 video frame) Interleave, preload duratio : 500 ms Service kind : Complete Main Dialog Normalization : -31 dB compr : -0.28 dB cmixlev : -3.0 dB surmixlev : -3 dB mixlevel : 284 dB roomtyp : 3 ltrtcmixlev : -3.0 dB ltrtsurmixlev : -3.0 dB lorocmixlev : -3.0 dB lorosurmixlev : -3.0 dB dialnorm_Average : -31 dB dialnorm_Minimum : -31 dB dialnorm_Maximum : -31 dB
Релиз: Присоединяйся к: Кликай на баннеры.

Всего файлов в раздаче: 1 
Boneyard.2024.MVO.WEB-DLRip.x264.seleZen.avi1.46 GB

Похожие раздачи по запросу - Список
2024-07-07 magnet Список подозреваемых / Могильник / Boneyard (2024) WEB-DLRip от DoMiNo & селезень | P | HDRezka Studio 1.46 GB ↑ 0 ↓ 0
2024-07-07 magnet Список подозреваемых / Могильник / Boneyard (2024) WEB-DL 1080p от New-Team | P 4.90 GB ↑ 0 ↓ 2
2024-07-07 magnet Список подозреваемых / Могильник / Boneyard (2024) WEB-DL 720p от селезень | P | TVShows, HDRezka Studio 2.66 GB ↑ 0 ↓ 0
2024-07-04 magnet Список подозреваемых / Могильник / Boneyard (2024) WEB-DLRip от DoMiNo & селезень | P2 | ViruseProject 1.46 GB ↑ 0 ↓ 0
2024-07-04 magnet Список подозреваемых / Могильник / Boneyard (2024) WEB-DL 1080p | ViruseProject 4.46 GB ↑ 0 ↓ 1
2023-12-21 magnet Белый список (2022) WEBRip от ELEKTRI4KA | KION 1.46 GB ↑ 0 ↓ 0
2022-07-02 magnet Список смертников / The Terminal List [S01] (2022) WEB-DL 720p | L 4К9.04 GB ↑ 0 ↓ 0

Комментарии


Зарегистрируйтесь чтобы добавить комментарий
Торрент клиент
byTorrent - программа для загрузки торрент-файлов.

Скачать byTorrent.exe (1,5 МБ)

Скачать byTorrent.zip (0,6 МБ)

Поддержи torrent.by
российских рублей
(300 российских рублей это 4$)

Обратная связь rss

End game ©