↑↓torrent.by
Поиск
Логин:  Регистрация
Пароль:

Пять фунтов искупления / 5lbs of Pressure (2024) WEB-DLRip от New-Team | D | Локализованная версия

download Скачать торрент-файл   magnet Магнитная ссылка Размер: 1.46 GB Добавлен: 2024-07-08 05:00
Пиры будут получены из сети DHT
Последний сидер был замечен 2024-07-08 22:40
Пять фунтов искупления / 5lbs of Pressure Год выпуска: 2024 Выпущено: США / Intrinsic Value Films, Paint Night Productions, Dark Dreams Entertainment Жанр: триллер, мелодрама, криминал Режиссер: Фил Эллокко / Phil Allocco В ролях: Люк Эванс, Рори Калкин, Алекс Петтифер, Стефани Леонидас, Руди Панкоу, Чарли Роус, Дэниэл Сингх, Лора Хоппер, Лоррэйн Барроуз, Джеймс Оливер Уитли О фильме: Отсидев срок за убийство, Адам возвращается в свой старый район, чтобы найти сына, который не догадывается о его существовании. Но брат человека, убитого Адамом много лет назад, жаждет мести и пойдет на всё. Продолжительность: 01:47:07 Перевод: Профессиональный (полное дублирование) | CPI Films Субтитры: Русские (forced hardsub) Раздача от : Формат: AVI Качество: WEB-DLRip Видео: 720x304 (24.000), 23.976 fps, XviD MPEG-4 ~ 1561 kbps avg, 0.297 bit/pixel, build 73 Аудио: 48 kHz, AC3 Dolby Digital, 3/2 (L,C,R,l,r) + LFE ch, ~ 384 kbps | RUS |
[+] MediaInfoОбщее Полное имя : D:Torrents5lbs.of.Pressure.2024.WEB-DLRip_от New-Team.avi Формат : AVI Формат/Информация : Audio Video Interleave Размер файла : 1,46 Гбайт Продолжительность : 1 ч. 47 м. Общий поток : 1 955 Кбит/сек Программа кодирования : VirtualDubMod 1.5.10.2 (build 2540/release) Библиотека кодирования : VirtualDubMod build 2540/release Видео Идентификатор : 0 Формат : MPEG-4 Visual Профиль формата : Advanced Simple@L5 Настройки формата : BVOP1 / Custom Matrix Параметр BVOP формата : 1 Параметр QPel формата : Нет Параметр GMC формата : Без точки перехода Параметр матрицы формата : Выборочная Идентификатор кодека : XVID Идентификатор кодека/Подсказка : XviD Продолжительность : 1 ч. 47 м. Битрейт : 1 561 Кбит/сек Ширина : 720 пикселей Высота : 304 пикселя Соотношение сторон : 2,35:1 Частота кадров : 24,000 кадра/сек Цветовое пространство : YUV Субдискретизация насыщенности : 4:2:0 Битовая глубина : 8 бит Тип развёртки : Прогрессивная Метод сжатия : С потерями Бит/(Пиксели*Кадры) : 0.297 Размер потока : 1,17 Гбайт (80%) Библиотека кодирования : XviD 73 Аудио Идентификатор : 1 Формат : AC-3 Формат/Информация : Audio Coding 3 Коммерческое название : Dolby Digital Идентификатор кодека : 2000 Продолжительность : 1 ч. 47 м. Вид битрейта : Постоянный Битрейт : 384 Кбит/сек Каналы : 6 каналов Channel layout : L R C LFE Ls Rs Частота : 48,0 КГц Частота кадров : 31,250 кадров/сек (1536 SPF) Метод сжатия : С потерями Размер потока : 294 Мбайт (20%) Выравнивание : Разделение по промежуткам Продолжительность промежутка : 42 мс. (1,00 видеокадр) Время предзагрузки промежутка : 500 мс. Service kind : Complete Main

Всего файлов в раздаче: 1 
5lbs.of.Pressure.2024.WEB-DLRip_от New-Team.avi1.46 GB

Похожие раздачи по запросу - Пять
2024-07-10 magnet Юрий Коваль - Приключения Васи Куролесова; Пять похищенных монахов; Промах гражданина Лошакова (2014) MP3 1.16 GB ↑ 0 ↓ 0
2024-07-08 magnet Пять фунтов искупления / 5lbs of Pressure (2024) WEB-DLRip от DoMiNo & селезень | D | CPI Films | Локализованная версия 1.46 GB ↑ 0 ↓ 0
2024-07-07 magnet Пять фунтов искупления / 5lbs of Pressure (2024) WEB-DL 1080p | D 4.23 GB ↑ 0 ↓ 0
2024-07-07 magnet Пять фунтов искупления / 5lbs of Pressure (2024) WEB-DLRip-AVC | D | Локализованный видеоряд 1.46 GB ↑ 0 ↓ 0
2024-03-29 magnet Пять минут тишины. Море и горы / Сезон: 5 / Серии: 1-24 из 24 [2022-2023, драма, приключения, HDTVRip-AVC] от Aleksan55 14.66 GB ↑ 0 ↓ 0
2024-01-19 magnet Пять процентов (2023) WEB-DLRip | OKKO 746.85 MB ↑ 0 ↓ 0
2024-01-18 magnet Пять процентов (2023) WEB-DL 1080p от ELEKTRI4KA 1К3.97 GB ↑ 0 ↓ 0

Комментарии


Зарегистрируйтесь чтобы добавить комментарий
Торрент клиент
byTorrent - программа для загрузки торрент-файлов.

Скачать byTorrent.exe (1,5 МБ)

Скачать byTorrent.zip (0,6 МБ)

Поддержи torrent.by
российских рублей
(300 российских рублей это 4$)

Обратная связь rss

End game ©