↑↓torrent.by
Поиск
Логин:  Регистрация
Пароль:

Ангел мести / Судьба / Fatum (2023) BDRip 1080р от DoMiNo & селезень | D | Akimbo Production

download Скачать торрент-файл   magnet Магнитная ссылка Размер: 5.22 GB Добавлен: 2024-07-08 05:00
Пиры будут получены из сети DHT
Последний сидер был замечен 2024-07-12 08:53
Информация о фильме Название: Ангел мести / Судьба Оригинальное название: Fatum Год выпуска: 2023 Жанр: Триллер, драма, криминал Режиссер: Хуан Галиньянес В ролях: Луис Тосар, Алекс Гарсия, Елена Анайя, Арон Пипер, Мария Луиза Майоль, Пепа Грация, Итан Альварес, Валентина Киза, Дерек Леон, Ксабьер Дейв О фильме: Заядлый игрок Серхио, получив наводку, возвращается в букмекерскую контору, пытаясь вернуть все проигранные деньги, но другой игрок врывается в заведение с пистолетом, и один выстрел навсегда меняет его жизнь. И не только его. Страна: Испания, Франция Студия: Amazon Prime Video, Axencia Galega das Industrias Culturais (AGADIC), Canal+ , Ciné, Films Distribution, Instituto de la Cinematografia y de las Artes Audiovisuales, Radio Televisión Española (RTVE), Televisión de Galicia (TVG) S.A., Vaca Films, Xunta de Galicia Продолжительность: 01:31:12 Перевод: Дублированный | Akimbo Production Субтитры: Русские (Forced), Английские Файл Формат: Matroska Качество: BDRip 1080р Видео: 1920x804 at 23.976 fps, x264@L4.1, ~7096 kbps Аудио 1: AC3, 6 ch, ~448 kbps - | Русский | Аудио 2: AC3, 6 ch, ~640 kbps - | Испанский | Формат субтитров: softsub (SRT) ***Рип от: -=DoMiNo=- *** В дубляже отсутствуют несколько сцен (~ 11 мин.), сделаны вставки с Blu-ray, переведено русскими форсированными субтитрами (Спасибо -admiralkz)
[+] M/Ix264 : frame I:766 Avg QP:16.45 size:121831 x264 : frame P:26299 Avg QP:18.01 size: 66350 x264 : frame B:104143 Avg QP:20.12 size: 28960 x264 : consecutive B-frames: 1.4% 3.3% 6.1% 9.4% 12.8% 55.4% 6.8% 0.3% 1.2% 1.2% 1.4% 0.3% General Unique ID : 80520736954579650826652306719837947265 (0x3C93BAD716BE685FB67430C67E728581) Complete name : K:Fatum.DUB.BDRip.1080p.x264.seleZen.mkv Format : Matroska Format version : Version 4 File size : 5.22 GiB Duration : 1 h 31 min Overall bit rate : 8 187 kb/s Frame rate : 23.976 FPS Movie name : Fatum.DUB.BDRip.1080p.x264.seleZen Encoded date : 2024-07-07 18:28:02 UTC Writing application : mkvmerge v85.0 ('Shame For You') 64-bit Writing library : libebml v1.4.5 + libmatroska v1.7.1 Cover : Yes Attachments : cover.jpg / small_cover.jpg Video ID : 1 Format : AVC Format/Info : Advanced Video Codec Format profile : High@L4.1 Format settings : CABAC / 5 Ref Frames Format settings, CABAC : Yes Format settings, Reference : 5 frames Codec ID : V_MPEG4/ISO/AVC Duration : 1 h 31 min Bit rate : 7 096 kb/s Width : 1 920 pixels Height : 804 pixels Display aspect ratio : 2.39:1 Frame rate mode : Constant Frame rate : 23.976 (24000/1001) FPS Color space : YUV Chroma subsampling : 4:2:0 Bit depth : 8 bits Scan type : Progressive Bits/(Pixel*Frame) : 0.192 Stream size : 4.52 GiB (87%) Title : -=DoMiNo=- Writing library : x264 core 164 r3191 -DoMiNo Encoding settings : cabac=1 / ref=5 / deblock=1:-3:-2 / analyse=0x3:0x133 / me=umh / subme=10 / psy=1 / psy_rd=1.05:0.05 / mixed_ref=1 / me_range=32 / chroma_me=1 / trellis=2 / 8x8dct=1 / cqm=0 / deadzone=21,11 / fast_pskip=0 / chroma_qp_offset=-3 / threads=24 / lookahead_threads=6 / sliced_threads=0 / nr=0 / decimate=1 / interlaced=0 / bluray_compat=0 / constrained_intra=0 / bframes=11 / b_pyramid=2 / b_adapt=2 / b_bias=0 / direct=3 / weightb=1 / open_gop=0 / weightp=2 / keyint=240 / keyint_min=23 / scenecut=40 / intra_refresh=0 / rc_lookahead=60 / rc=crf / mbtree=0 / crf=19.5 / qcomp=0.60 / qpmin=0 / qpmax=69 / qpstep=4 / vbv_maxrate=50000 / vbv_bufsize=62500 / crf_max=0.0 / nal_hrd=none / filler=0 / ip_ratio=1.40 / pb_ratio=1.25 / aq=1:0.80 Language : English Default : Yes Forced : No Color range : Limited Color primaries : BT.709 Transfer characteristics : BT.709 Matrix coefficients : BT.709 Audio #1 ID : 2 Format : AC-3 Format/Info : Audio Coding 3 Commercial name : Dolby Digital Codec ID : A_AC3 Duration : 1 h 31 min Bit rate mode : Constant Bit rate : 448 kb/s Channel(s) : 6 channels Channel layout : L R C LFE Ls Rs Sampling rate : 48.0 kHz Frame rate : 31.250 FPS (1536 SPF) Compression mode : Lossy Stream size : 292 MiB (5%) Title : DUB - Akimbo Production Language : Russian Service kind : Complete Main Default : Yes Forced : No Dialog Normalization : -31 dB compr : -0.28 dB cmixlev : -3.0 dB surmixlev : -3 dB dmixmod : Lo/Ro ltrtcmixlev : -3.0 dB ltrtsurmixlev : -3.0 dB lorocmixlev : -3.0 dB lorosurmixlev : -3.0 dB dialnorm_Average : -31 dB dialnorm_Minimum : -31 dB dialnorm_Maximum : -31 dB Audio #2 ID : 3 Format : AC-3 Format/Info : Audio Coding 3 Commercial name : Dolby Digital Codec ID : A_AC3 Duration : 1 h 31 min Bit rate mode : Constant Bit rate : 640 kb/s Channel(s) : 6 channels Channel layout : L R C LFE Ls Rs Sampling rate : 48.0 kHz Frame rate : 31.250 FPS (1536 SPF) Compression mode : Lossy Stream size : 417 MiB (8%) Title : Original Language : Spanish Service kind : Complete Main Default : No Forced : No Dialog Normalization : -31 dB cmixlev : -4.5 dB surmixlev : -6 dB dialnorm_Average : -31 dB dialnorm_Minimum : -31 dB dialnorm_Maximum : -31 dB Text #1 ID : 4 Format : UTF-8 Codec ID : S_TEXT/UTF8 Codec ID/Info : UTF-8 Plain Text Duration : 21 min 25 s Bit rate : 63 b/s Frame rate : 0.135 FPS Count of elements : 173 Stream size : 10.0 KiB (0%) Title : Forced_ Language : Russian Default : No Forced : No Text #2 ID : 5 Format : UTF-8 Codec ID : S_TEXT/UTF8 Codec ID/Info : UTF-8 Plain Text Duration : 1 h 25 min Bit rate : 51 b/s Frame rate : 0.218 FPS Count of elements : 1121 Stream size : 32.6 KiB (0%) Title : Full Language : English Default : No Forced : No Menu 00:00:00.000 : en:Chapter 01 00:06:25.802 : en:Chapter 02 00:14:09.557 : en:Chapter 03 00:21:25.951 : en:Chapter 04 00:29:33.354 : en:Chapter 05 00:40:16.705 : en:Chapter 06 00:48:13.473 : en:Chapter 07 00:53:45.096 : en:Chapter 08 01:02:31.831 : en:Chapter 09 01:11:17.773 : en:Chapter 10 01:19:53.538 : en:Chapter 11 01:27:28.952 : en:Chapter 12
Релиз: Присоединяйся к: Кликай на баннеры.

Всего файлов в раздаче: 1 
Fatum.DUB.BDRip.1080p.x264.seleZen.mkv5.22 GB

Похожие раздачи по запросу - Ангел
2024-07-08 magnet Ангел мести / Fatum (2023) BDRip от MegaPeer | D 1.46 GB ↑ 1 ↓ 0
2024-07-08 magnet Ангел мести / Fatum (2023) BDRip 1080р от MegaPeer | D 8.18 GB ↑ 0 ↓ 0
2024-07-08 magnet Ангел мести / Fatum (2023) BDRip-AVC от New-Team | D 2.18 GB ↑ 0 ↓ 0
2024-07-08 magnet Ангел мести / Fatum (2023) BDRip 720p от New-Team | D 4.23 GB ↑ 0 ↓ 0
2024-07-08 magnet Ангел мести / Судьба / Fatum (2023) BDRip-AVC от DoMiNo & селезень | D | Akimbo Production 1.45 GB ↑ 0 ↓ 0
2024-06-25 magnet Ангел-А / Angel-A (2005) BDRip-AVC от New-Team | D, A, P1 2.18 GB ↑ 0 ↓ 0
2024-06-25 magnet Ангел-А / Angel-A (2005) BDRip 720p от New-Team | D, A, P1 2.91 GB ↑ 0 ↓ 0

Комментарии


Зарегистрируйтесь чтобы добавить комментарий
Торрент клиент
byTorrent - программа для загрузки торрент-файлов.

Скачать byTorrent.exe (1,5 МБ)

Скачать byTorrent.zip (0,6 МБ)

Поддержи torrent.by
российских рублей
(300 российских рублей это 4$)

Обратная связь rss

End game ©