↑↓torrent.by
Поиск
Логин:  Регистрация
Пароль:

Страна Танабаты / Tanabata no Kuni / Land of Tanabata [01x01 из 10] (2024) WEB-DL 1080p | P | TVShows, HDRezka Studio

download Скачать торрент-файл   magnet Магнитная ссылка Размер: 2.24 GB Добавлен: 2024-07-08 05:00
Пиры будут получены из сети DHT
Последний сидер был замечен 2024-07-08 05:00
Информация о фильме Название: Страна Танабаты Оригинальное название: Tanabata no Kuni / Land of Tanabata Год выхода: 2024 Жанр: фантастика, драма Режиссер: Юсукэ Таки, Хаято Каваи, Такахидэ Сано В ролях: Каната Хосода, Рёко Фудзино, Хироси Миками, Такаюки Ямада О фильме: Студент Ёдзи обладает сверхспособностью — он может проделывать круглые отверстия на разных поверхностях. С помощью этого странного дара парень должен спасти мир от надвигающейся катастрофы. Страна: Япония Студия: Shogakukan Inc., Toei Продолжительность: 1 x ~ 00:50:00 Перевод 1: Профессиональный (многоголосый закадровый) TVShows Перевод 2: Профессиональный (многоголосый закадровый) HDRezka За исходник спасибо NanDesuKa. Синхронизация и удаление рекламы во всех аудиодорожках выполнена без пересжатия звука. Формированные субтитры нужны только для озвучки HDRezka. Файл Качество: WEB-DL 1080p Видео: 1920x1080 at 23.976 fps, MPEG-4 AVC, ~12700 kbps avg Аудио 1: 48 kHz, AC3, 3/2 (L,C,R,l,r) + LFE ch, ~384 kbps avg | TVShows Аудио 2: 48 kHz, 48 kHz, AAC, 2/0 (L,R) ch, ~128 kbps avg | HDRezka Аудио 3: 48 kHz, E-AC3, 3/2 (L,C,R,l,r) + LFE ch, ~256 kbps avg | Korean Субтитры: Русские (Forced), английские, японские Семпл
[+] Скриншоты       
[+] MediaInfoОбщее Уникальный идентификатор : 235987481028642325686741975445373142681 (0xB189891E7B365B3E84833352169F4699) Полное имя : Land.of.Tanabata.S01E01.1080p.DSNP.WEB-DL.DDP5.1.H.264-AsiaOne-Kyle.mkv Формат : Matroska Версия формата : Version 4 Размер файла : 2,24 Гбайт Продолжительность : 49 мин. 55 с. Режим общего битрейта : Переменный Общий битрейт : 6 416 Кбит/сек Частота кадров : 23,976 кадра/сек Дата кодирования : 2024-07-07 17:03:29 UTC Программа кодирования : mkvmerge v85.0 ('Shame For You') 64-bit Библиотека кодирования : libebml v1.4.5 + libmatroska v1.7.1 Видео Идентификатор : 1 Формат : AVC Формат/Информация : Advanced Video Codec Профиль формата : High@L4 Настройки формата : CABAC / 4 Ref Frames Параметр CABAC формата : Да Параметр RefFrames формата : 4 кадра Идентификатор кодека : V_MPEG4/ISO/AVC Продолжительность : 49 мин. 55 с. Вид битрейта : Переменный Битрейт : 5 648 Кбит/сек Максимальный битрейт : 12,7 Мбит/сек Ширина : 1 920 пикселей Высота : 1 080 пикселей Соотношение сторон дисплея : 16:9 Режим частоты кадров : Постоянный Частота кадров : 23,976 (24000/1001) кадра/сек Цветовое пространство : YUV Цветовая субдискретизация : 4:2:0 Битовая глубина : 8 бит Тип развёртки : Прогрессивная Бит/(Пиксели*Кадры) : 0.114 Временной код первого кадра : 00:00:00;00 Размер потока : 1,97 Гбайт (88%) По умолчанию : Да Принудительно : Нет Цветовой диапазон : Limited Основные цвета : BT.709 Характеристики трансфера : BT.709 Коэффициенты матрицы : BT.709 Аудио #1 Идентификатор : 2 Формат : AC-3 Формат/Информация : Audio Coding 3 Коммерческое название : Dolby Digital Идентификатор кодека : A_AC3 Продолжительность : 49 мин. 55 с. Вид битрейта : Постоянный Битрейт : 384 Кбит/сек Канал(-ы) : 6 каналов Расположение каналов : L R C LFE Ls Rs Частота дискретизации : 48,0 КГц Частота кадров : 31,250 кадров/сек (1536 SPF) Метод сжатия : С потерями Размер потока : 137 Мбайт (6%) Заголовок : TVShows Язык : Русский Вид сервиса : Complete Main По умолчанию : Да Принудительно : Нет Нормализация звука речи : -31 dB cmixlev : -4.5 dB surmixlev : -6 dB dialnorm_Average : -31 dB dialnorm_Minimum : -31 dB dialnorm_Maximum : -31 dB Аудио #2 Идентификатор : 3 Формат : AAC LC Формат/Информация : Advanced Audio Codec Low Complexity Идентификатор кодека : A_AAC-2 Продолжительность : 48 мин. 40 с. Битрейт : 128 Кбит/сек Канал(-ы) : 2 канала Расположение каналов : L R Частота дискретизации : 48,0 КГц Частота кадров : 46,875 кадров/сек (1024 SPF) Метод сжатия : С потерями Размер потока : 44,7 Мбайт (2%) Заголовок : HDRezka Язык : Русский По умолчанию : Нет Принудительно : Нет Аудио #3 Идентификатор : 4 Формат : E-AC-3 Формат/Информация : Enhanced AC-3 Коммерческое название : Dolby Digital Plus Идентификатор кодека : A_EAC3 Продолжительность : 49 мин. 55 с. Вид битрейта : Постоянный Битрейт : 256 Кбит/сек Канал(-ы) : 6 каналов Расположение каналов : L R C LFE Ls Rs Частота дискретизации : 48,0 КГц Частота кадров : 31,250 кадров/сек (1536 SPF) Метод сжатия : С потерями Размер потока : 91,4 Мбайт (4%) Заголовок : Japanese Язык : Японский Вид сервиса : Complete Main По умолчанию : Нет Принудительно : Нет Нормализация звука речи : -27 dB compr : -0.28 dB mixlevel : 105 dB roomtyp : Small dialnorm_Average : -27 dB dialnorm_Minimum : -27 dB dialnorm_Maximum : -27 dB Текст #1 Идентификатор : 5 Формат : UTF-8 Идентификатор кодека : S_TEXT/UTF8 Идентификатор кодека/Информация : UTF-8 Plain Text Продолжительность : 37 мин. 1 с. Битрейт : 3 бит/сек Частота кадров : 0,006 кадр/сек Число элементов : 14 Размер потока : 921 байт (0%) Заголовок : Russian, Forced Язык : Русский По умолчанию : Нет Принудительно : Нет Текст #2 Идентификатор : 6 Формат : UTF-8 Идентификатор кодека : S_TEXT/UTF8 Идентификатор кодека/Информация : UTF-8 Plain Text Продолжительность : 49 мин. 19 с. Битрейт : 66 бит/сек Частота кадров : 0,206 кадр/сек Число элементов : 611 Размер потока : 24,1 КиБ (0%) Язык : Японский По умолчанию : Нет Принудительно : Нет Текст #3 Идентификатор : 7 Формат : UTF-8 Идентификатор кодека : S_TEXT/UTF8 Идентификатор кодека/Информация : UTF-8 Plain Text Продолжительность : 49 мин. 19 с. Битрейт : 66 бит/сек Частота кадров : 0,206 кадр/сек Число элементов : 611 Размер потока : 24,1 КиБ (0%) Заголовок : SDH Язык : Японский По умолчанию : Нет Принудительно : Нет Текст #4 Идентификатор : 8 Формат : UTF-8 Идентификатор кодека : S_TEXT/UTF8 Идентификатор кодека/Информация : UTF-8 Plain Text Продолжительность : 49 мин. 46 с. Битрейт : 51 бит/сек Частота кадров : 0,202 кадр/сек Число элементов : 603 Размер потока : 18,6 КиБ (0%) Язык : Английский По умолчанию : Нет Принудительно : Нет Текст #5 Идентификатор : 9 Формат : UTF-8 Идентификатор кодека : S_TEXT/UTF8 Идентификатор кодека/Информация : UTF-8 Plain Text Продолжительность : 49 мин. 50 с. Битрейт : 61 бит/сек Частота кадров : 0,236 кадр/сек Число элементов : 707 Размер потока : 22,3 КиБ (0%) Заголовок : SDH Язык : Английский По умолчанию : Нет Принудительно : Нет
Релиз от: by Kyle

Всего файлов в раздаче: 1 
Land.of.Tanabata.S01E01.1080p.DSNP.WEB-DL.DDP5.1.H.264-AsiaOne-Kyle.mkv2.24 GB

Похожие раздачи по запросу - Страна
2024-07-14 magnet Страна песков / Sand Land: The Series [S01] (2024) WEBRip 1080p | L | AniBaza 13.45 GB ↑ 0 ↓ 0
2024-07-12 magnet Лесная Страна / Wald / Woodland (2023) WEB-DLRip-AVC | L | RGB 1.54 GB ↑ 7 ↓ 0
2024-07-12 magnet Лесная Страна / Wald / Woodland (2023) WEB-DL 1080p | L | RGB 5.18 GB ↑ 5 ↓ 2
2024-07-08 magnet Страна Танабаты / Tanabata no Kuni / Land of Tanabata [01x01-03 из 10] (2024) WEB-DL 1080p | P | HDRezka Studio, TVShows 6.98 GB ↑ 0 ↓ 0
2024-06-30 magnet Мо Янь - Страна вина (2014) MP3 352.61 MB ↑ 0 ↓ 0
2024-06-18 magnet Страна солнца / Summerland (2020) HDRip-AVC от DoMiNo & селезень | A 1.77 GB ↑ 0 ↓ 0
2024-06-18 magnet Страна солнца / Summerland (2020) BDRip 720p от DoMiNo & селезень | A 5.09 GB ↑ 0 ↓ 0

Комментарии


Зарегистрируйтесь чтобы добавить комментарий
Торрент клиент
byTorrent - программа для загрузки торрент-файлов.

Скачать byTorrent.exe (1,5 МБ)

Скачать byTorrent.zip (0,6 МБ)

Поддержи torrent.by
российских рублей
(300 российских рублей это 4$)

Обратная связь rss

End game ©