↑↓torrent.by
Поиск
Логин:  Регистрация
Пароль:

Свет в океане / The Light Between Oceans (2016) BDRip 1080p от ExKinoRay | Лицензия

download Скачать торрент-файл   magnet Магнитная ссылка Размер: 15.90 GB Добавлен: 2024-07-08 05:00
Пиры будут получены из сети DHT
Последний сидер был замечен сегодня в 14:27
Информация о фильме Название: Свет в океане Оригинальное название: The Light Between Oceans Год выхода: 2016 Жанр: Драма, мелодрама Режиссер: Дерек Сиенфрэнс В ролях: Майкл Фассбендер, Алисия Викандер, Рэйчел Вайз, Флоренс Клери, Джек Томпсон, Томас Унгер, Джейн Менелос, Гарри МакДональд, Энтони Хэйес, Бенедикт Харди О фильме: Вернувшийся с войны смотритель маяка Том встречает трепетную девушку по имени Изабель. Зародившаяся между ними любовь полностью преображает Изабель и возвращает опустошенному Тому веру в жизнь. Молодожены поселяются на уединенном острове, к берегу которого однажды пристает лодка с новорожденной девочкой. Супруги решают воспитать младенца как родную дочь, не представляя, насколько разрушительными будут последствия этого выбора. Страна: Великобритания, Новая Зеландия, США Студия: Amblin Entertainment, DreamWorks SKG Продолжительность: 02:12:51 Перевод: Дублированный | Лицензия Файл Качество: BDRip 1080p Видео: MPEG-4 AVC, 1920x800, 15.0 Мbit/s, 23.976 fps Звук: Аудио #01: 48 kHz, AC3, 5.1, 640 Kbps | Дублированный | RUS | Аудио #02: 48 kHz, DTS, 5.1, 1510 kbps | Оригинал | ENG | Субтитры: Русские (full, forced), английские
[+] MIGeneral Unique ID : 228736901868391100267587089783140751164 (0xAC151FF7721187E0B0E2BF9D6A29973C) Complete name : F:VideoThe.Light.Between.Oceans.2016.BDRip.1080p.ExKinoRay.mkv Format : Matroska Format version : Version 4 / Version 2 File size : 15.9 GiB Duration : 2 h 12 min Overall bit rate : 17.1 Mb/s Encoded date : UTC 2017-03-10 11:31:19 Writing application : mkvmerge v8.3.0 ('Over the Horizon') 64bit Writing library : libebml v1.3.1 + libmatroska v1.4.2 Video ID : 1 Format : AVC Format/Info : Advanced Video Codec Format profile : High@L4.1 Format settings, CABAC : Yes Format settings, ReFrames : 5 frames Codec ID : V_MPEG4/ISO/AVC Duration : 2 h 12 min Bit rate : 15.0 Mb/s Width : 1 920 pixels Height : 800 pixels Display aspect ratio : 2.40:1 Frame rate mode : Constant Frame rate : 23.976 (24000/1001) FPS Color space : YUV Chroma subsampling : 4:2:0 Bit depth : 8 bits Scan type : Progressive Bits/(Pixel*Frame) : 0.407 Stream size : 13.9 GiB (87%) Writing library : x264 core 142 r2431+42 c69a006 tMod Encoding settings : cabac=1 / ref=5 / deblock=1:0:0 / analyse=0x3:0x113 / me=umh / subme=10 / psy=1 / fade_compensate=0.00 / psy_rd=1.05:0.10 / mixed_ref=1 / me_range=48 / chroma_me=1 / trellis=2 / 8x8dct=1 / cqm=0 / deadzone=21,11 / fast_pskip=0 / chroma_qp_offset=-2 / threads=12 / lookahead_threads=1 / sliced_threads=0 / nr=0 / decimate=1 / interlaced=0 / bluray_compat=0 / constrained_intra=0 / fgo=0 / bframes=6 / b_pyramid=2 / b_adapt=2 / b_bias=0 / direct=3 / weightb=1 / open_gop=0 / weightp=2 / keyint=250 / keyint_min=23 / scenecut=40 / intra_refresh=0 / rc=2pass / mbtree=0 / bitrate=15000 / ratetol=2.0 / qcomp=0.70 / qpmin=0:0:0 / qpmax=69:69:69 / qpstep=4 / cplxblur=20.0 / qblur=0.5 / ip_ratio=1.40 / pb_ratio=1.30 / aq=2:1.00 / aq-sensitivity=10.00 / aq-factor=1.00:1.00:1.00 / aq2=0 / aq3=0 Language : English Default : Yes Forced : No Audio #1 ID : 2 Format : AC-3 Format/Info : Audio Coding 3 Mode extension : CM (complete main) Format settings, Endianness : Big Codec ID : A_AC3 Duration : 2 h 12 min Bit rate mode : Constant Bit rate : 640 kb/s Channel(s) : 6 channels Channel positions : Front: L C R, Side: L R, LFE Sampling rate : 48.0 kHz Frame rate : 31.250 FPS (1536 spf) Bit depth : 16 bits Compression mode : Lossy Stream size : 608 MiB (4%) Title : Dub Language : Russian Default : Yes Forced : No Audio #2 ID : 3 Format : DTS Format/Info : Digital Theater Systems Mode : 16 Format settings, Endianness : Big Codec ID : A_DTS Duration : 2 h 12 min Bit rate mode : Constant Bit rate : 1 509 kb/s Channel(s) : 6 channels Channel positions : Front: L C R, Side: L R, LFE Sampling rate : 48.0 kHz Frame rate : 93.750 FPS (512 spf) Bit depth : 24 bits Compression mode : Lossy Stream size : 1.40 GiB (9%) Title : Original Language : English Default : No Forced : No Text #1 ID : 4 Format : UTF-8 Codec ID : S_TEXT/UTF8 Codec ID/Info : UTF-8 Plain Text Duration : 31 min 28 s Bit rate : 2 b/s Count of elements : 6 Stream size : 489 Bytes (0%) Title : Forced Language : Russian Default : Yes Forced : No Text #2 ID : 5 Format : UTF-8 Codec ID : S_TEXT/UTF8 Codec ID/Info : UTF-8 Plain Text Duration : 2 h 5 min Bit rate : 62 b/s Count of elements : 1293 Stream size : 57.0 KiB (0%) Title : Full Language : Russian Default : No Forced : No Text #3 ID : 6 Format : UTF-8 Codec ID : S_TEXT/UTF8 Codec ID/Info : UTF-8 Plain Text Duration : 2 h 6 min Bit rate : 47 b/s Count of elements : 1634 Stream size : 44.1 KiB (0%) Title : Full Language : English Default : No Forced : No Menu 00:00:00.000 : en:00:00:00.000 00:04:55.128 : en:00:04:55.128 00:11:38.531 : en:00:11:38.531 00:17:30.007 : en:00:17:30.007 00:23:07.469 : en:00:23:07.469 00:29:35.816 : en:00:29:35.816 00:35:21.953 : en:00:35:21.953 00:42:35.678 : en:00:42:35.678 00:49:51.822 : en:00:49:51.822 00:55:14.186 : en:00:55:14.186 00:59:26.062 : en:00:59:26.062 01:05:48.027 : en:01:05:48.027 01:10:52.957 : en:01:10:52.957 01:13:14.724 : en:01:13:14.724 01:22:34.032 : en:01:22:34.032 01:31:42.956 : en:01:31:42.956 01:42:29.101 : en:01:42:29.101 01:51:31.018 : en:01:51:31.018 02:01:29.324 : en:02:01:29.324 02:07:08.621 : en:02:07:08.621
Релиз от: Автор релиза:

Всего файлов в раздаче: 1 
The.Light.Between.Oceans.2016.BDRip.1080p.ExKinoRay.mkv15.90 GB

Похожие раздачи по запросу - Свет
2024-06-17 magnet Я видел свет телевизора / I Saw the TV Glow (2024) WEB-DLRip от AR-Team | P | HDRezka Studio 746.16 MB ↑ 0 ↓ 0
2024-06-17 magnet Я видел свет телевизора / I Saw the TV Glow (2024) WEB-DL 720p от селезень | P | HDRezka Studio 2.98 GB ↑ 0 ↓ 1
2024-06-16 magnet Я видел свет телевизора / I Saw the TV Glow (2024) WEB-DL 1080p от New-Team | P | HDRezka Studio 6.56 GB ↑ 0 ↓ 1
2024-06-12 magnet Свет (2023) WEB-DLRip от AR-Team 747.80 MB ↑ 0 ↓ 1
2024-06-10 magnet Свет (2023) WEB-DLRip-AVC от DoMiNo & селезень 1К1.32 GB ↑ 0 ↓ 0
2024-06-10 magnet Свет (2023) WEB-DLRip от MegaPeer 1К1.46 GB ↑ 0 ↓ 0
2024-06-09 magnet Свет (2023) WEBRip 720p от ivandubskoj 1.54 GB ↑ 0 ↓ 0

Комментарии


Зарегистрируйтесь чтобы добавить комментарий
Торрент клиент
byTorrent - программа для загрузки торрент-файлов.

Скачать byTorrent.exe (1,5 МБ)

Скачать byTorrent.zip (0,6 МБ)

Поддержи torrent.by
российских рублей
(300 российских рублей это 4$)

Обратная связь rss

End game ©