↑↓torrent.by
Поиск
Логин:  Регистрация
Пароль:

Ангел мести / Fatum (2023) BDRip 1080р от MegaPeer | D

download Скачать торрент-файл   magnet Магнитная ссылка Размер: 8.18 GB Добавлен: 2024-07-08 05:00
Пиры будут получены из сети DHT
Последний сидер был замечен сегодня в 15:57
Информация Название: Ангел мести Оригинальное название: Fatum Год выхода: 2023 Жанр: Триллер, драма, криминал Режиссер: Хуан Галиньянес В ролях: Луис Тосар, Алехандро Гарсия, Елена Анайя, Арон Пипер, Мария Луиза Майоль, Пепа Грация, Этан Альварес, Валентина Киса, Дерек Леон, Ксабьер Дейв Описание: Заядлый игрок Серхио, получив наводку, возвращается в букмекерскую контору, пытаясь вернуть все проигранные деньги, но другой игрок врывается в заведение с пистолетом, и один выстрел навсегда меняет его жизнь. И не только его. Страна: Испания, Франция Студия: Amazon Prime Video, Axencia Galega das Industrias Culturais (AGADIC), Canal+ , Ciné, Films Distribution, Instituto de la Cinematografia y de las Artes Audiovisuales, Radio Televisión Española (RTVE), Televisión de Galicia (TVG) S.A., Vaca Films, Xunta de Galicia Продолжительность: 01:31:12 Перевод: Профессиональный (полное дублирование) | Akimbo Production *** В дубляже (WEB-DL) отсутствуют несколько сцен (~ 11 мин.), сделаны вставки с Blu-ray, переведено русскими форсированными субтитрами Файл Качество: BDRip 1080p Исходник: Fate.Game.Ein.Schuss.genuegt.2023.DUAL.COMPLETE.BLURAY-WDC Формат: MKV Кодек: MPEG-4 AVC Видео: 1920x800 (2.40:1), 23.976 fps, MPEG-4 AVC ~ 11.8 Mbps avg, 0.320 bit/pixel Аудио: AC3, 48 kHz, 6 ch, ~448.00 kbps avg | русский | DUB | Аудио: AC3, 48 kHz, 6 ch, ~640.00 kbps avg | испанский | Субтитры: Русские (Forced), Английские (Full), Немецкие (Full)
[+] Инфо-файлОбщее Уникальный идентификатор : 194924511569654541283098551456319172679 (0x92A5186A587A92D0A152EB073BAC7047) Полное имя : Fate.Game.Ein.Schuss.genuegt.2023.1080p.BluRay.DD.5.1.x264-MegaPeer.mkv Формат : Matroska Версия формата : Version 4 Размер файла : 8,18 Гбайт Продолжительность : 1 ч. 31 мин. Общий битрейт : 12,8 Мбит/сек Частота кадров : 23,976 кадра/сек Название фильма : Ангел мести / Fatum (2024) от stillet@MegaPeer Дата кодирования : 2024-07-07 13:09:40 UTC Программа кодирования : mkvmerge v15.0.0 ('Duel with the Devil') 64-bit Библиотека кодирования : libebml v1.3.5 + libmatroska v1.4.5 Обложка : Yes Attachments : cover.jpg Видео Идентификатор : 1 Формат : AVC Формат/Информация : Advanced Video Codec Профиль формата : High@L4.1 Настройки формата : CABAC / 5 Ref Frames Параметр CABAC формата : Да Параметр RefFrames формата : 5 кадров Идентификатор кодека : V_MPEG4/ISO/AVC Продолжительность : 1 ч. 31 мин. Битрейт : 11,8 Мбит/сек Ширина : 1 920 пикселей Высота : 800 пикселей Соотношение сторон дисплея : 2,40:1 Режим частоты кадров : Постоянный Частота кадров : 23,976 (24000/1001) кадра/сек Цветовое пространство : YUV Цветовая субдискретизация : 4:2:0 Битовая глубина : 8 бит Тип развёртки : Прогрессивная Бит/(Пиксели*Кадры) : 0.320 Размер потока : 7,49 Гбайт (92%) Библиотека кодирования : x264 core 164 r3186+62M stillet t_mod_New Параметры библиотеки кодирования : cabac=1 / ref=5 / deblock=1:-3:-3 / analyse=0x3:0x113 / me=umh / subme=10 / psy=1 / fade_compensate=0.00 / psy_rd=1.03:0.01 / mixed_ref=1 / me_range=32 / chroma_me=1 / trellis=2 / 8x8dct=1 / cqm=0 / deadzone=21,11 / fast_pskip=0 / chroma_qp_offset=-3 / threads=12 / lookahead_threads=3 / sliced_threads=0 / nr=0 / decimate=0 / interlaced=0 / bluray_compat=0 / constrained_intra=0 / fgo=0 / bframes=10 / b_pyramid=2 / b_adapt=2 / b_bias=0 / direct=3 / weightb=1 / open_gop=0 / weightp=2 / keyint=240 / keyint_min=24 / scenecut=40 / intra_refresh=0 / rc_lookahead=40 / rc=2pass / mbtree=0 / bitrate=11775 / ratetol=1.0 / qcomp=0.60 / qpmin=0:0:0 / qpmax=69:69:69 / qpstep=4 / cplxblur=20.0 / qblur=0.5 / vbv_maxrate=50000 / vbv_bufsize=62500 / nal_hrd=none / filler=0 / ip_ratio=1.40 / pb_ratio=1.30 / aq=1:1.10 / aq-sensitivity=10.00 / aq-factor=1.00:1.00:1.00 / aq2=0 / aq3=0 Язык : Английский По умолчанию : Да Принудительно : Нет Аудио #1 Идентификатор : 2 Формат : AC-3 Формат/Информация : Audio Coding 3 Коммерческое название : Dolby Digital Идентификатор кодека : A_AC3 Продолжительность : 1 ч. 31 мин. Вид битрейта : Постоянный Битрейт : 448 Кбит/сек Канал(-ы) : 6 каналов Расположение каналов : L R C LFE Ls Rs Частота дискретизации : 48,0 КГц Частота кадров : 31,250 кадров/сек (1536 SPF) Метод сжатия : С потерями Размер потока : 292 Мбайт (3%) Заголовок : DUB | Akimbo Production Язык : Русский Вид сервиса : Complete Main По умолчанию : Да Принудительно : Да AC3_metadata cmixlev : -3.0 dB surmixlev : -3 dB Аудио #2 Идентификатор : 3 Формат : AC-3 Формат/Информация : Audio Coding 3 Коммерческое название : Dolby Digital Идентификатор кодека : A_AC3 Продолжительность : 1 ч. 31 мин. Вид битрейта : Постоянный Битрейт : 640 Кбит/сек Канал(-ы) : 6 каналов Расположение каналов : L R C LFE Ls Rs Частота дискретизации : 48,0 КГц Частота кадров : 31,250 кадров/сек (1536 SPF) Метод сжатия : С потерями Размер потока : 417 Мбайт (5%) Язык : Испанский Вид сервиса : Complete Main По умолчанию : Нет Принудительно : Нет AC3_metadata cmixlev : -3.0 dB surmixlev : -3 dB Текст #1 Идентификатор : 4 Формат : UTF-8 Идентификатор кодека : S_TEXT/UTF8 Идентификатор кодека/Информация : UTF-8 Plain Text Продолжительность : 21 мин. 25 с. Битрейт : 63 бит/сек Частота кадров : 0,135 кадр/сек Число элементов : 173 Размер потока : 10,0 КиБ (0%) Заголовок : Forced Язык : Русский По умолчанию : Да Принудительно : Да Текст #2 Идентификатор : 5 Формат : UTF-8 Идентификатор кодека : S_TEXT/UTF8 Идентификатор кодека/Информация : UTF-8 Plain Text Продолжительность : 1 ч. 25 мин. Битрейт : 51 бит/сек Частота кадров : 0,218 кадр/сек Число элементов : 1121 Размер потока : 32,6 КиБ (0%) Заголовок : Full Язык : Английский По умолчанию : Нет Принудительно : Нет Текст #3 Идентификатор : 6 Формат : UTF-8 Идентификатор кодека : S_TEXT/UTF8 Идентификатор кодека/Информация : UTF-8 Plain Text Продолжительность : 1 ч. 25 мин. Битрейт : 58 бит/сек Частота кадров : 0,199 кадр/сек Число элементов : 1026 Размер потока : 36,6 КиБ (0%) Заголовок : Full Язык : Немецкий По умолчанию : Нет Принудительно : Нет Меню 00:00:00.000 : Chapter 01 00:06:25.802 : Chapter 02 00:14:09.557 : Chapter 03 00:21:25.951 : Chapter 04 00:29:33.354 : Chapter 05 00:40:16.704 : Chapter 06 00:48:13.472 : Chapter 07 00:53:45.096 : Chapter 08 01:02:31.831 : Chapter 09 01:11:17.773 : Chapter 10 01:19:53.537 : Chapter 11 01:27:28.952 : Chapter 12 01:31:10.465 : Chapter 13
Релиз:

Всего файлов в раздаче: 1 
Fate.Game.Ein.Schuss.genuegt.2023.1080p.BluRay.DD.5.1.x264-MegaPeer.mkv8.18 GB

Похожие раздачи по запросу - Ангел
2024-07-08 magnet Ангел мести / Fatum (2023) BDRip от MegaPeer | D 1.46 GB ↑ 0 ↓ 0
2024-07-08 magnet Ангел мести / Fatum (2023) BDRip-AVC от New-Team | D 2.18 GB ↑ 0 ↓ 0
2024-07-08 magnet Ангел мести / Fatum (2023) BDRip 720p от New-Team | D 4.23 GB ↑ 0 ↓ 0
2024-07-08 magnet Ангел мести / Судьба / Fatum (2023) BDRip-AVC от DoMiNo & селезень | D | Akimbo Production 1.45 GB ↑ 0 ↓ 0
2024-07-08 magnet Ангел мести / Судьба / Fatum (2023) BDRip 1080р от DoMiNo & селезень | D | Akimbo Production 5.22 GB ↑ 0 ↓ 0
2024-06-25 magnet Ангел-А / Angel-A (2005) BDRip-AVC от New-Team | D, A, P1 2.18 GB ↑ 0 ↓ 0
2024-06-25 magnet Ангел-А / Angel-A (2005) BDRip 720p от New-Team | D, A, P1 2.91 GB ↑ 0 ↓ 0

Комментарии


Зарегистрируйтесь чтобы добавить комментарий
Торрент клиент
byTorrent - программа для загрузки торрент-файлов.

Скачать byTorrent.exe (1,5 МБ)

Скачать byTorrent.zip (0,6 МБ)

Поддержи torrent.by
российских рублей
(300 российских рублей это 4$)

Обратная связь rss

End game ©