↑↓torrent.by
Поиск
Логин:  Регистрация
Пароль:

Танцуя для дьявола: Секта 7M в TikTok / Dancing for the Devil: The 7M TikTok Cult [S01] (2024) WEB-DL 1080p | Red Head Sound

download Скачать торрент-файл   magnet Магнитная ссылка Размер: 6.38 GB Добавлен: 2024-07-08 11:00
Пиры будут получены из сети DHT
Последний сидер был замечен 2024-07-16 22:14
Название: Танцуя для дьявола: Секта 7M в TikTok Оригинальное название: Dancing for the Devil: The 7M TikTok Cult Год выхода: 2024 Жанр: Документальный, криминал Режиссер: Дерек Донин В ролях: Виктория Пейдж Уоткинс, Кагга Джейсон, Мелани Уилкинг, Кайли Дуглас, Обри Фишер, Лоуренс Райано, Мигдалия Райано, Дин Уилкинг, Келли Уилкинг, Марке Ричардсон II и др. Описание сериала: TikTok-танцоры присоединяются к церковной компании по управлению талантами. Реальность оказывается безрадостной, а об основателе компании всплывают тревожные подробности. Страна: США Студия: Netflix Продолжительность: ~0:58:00 Перевод: Профессиональный (многоголосый, закадровый) Red Head Sound Субтитры: Русские, английские Файл Формат: MKV Качество: WEB-DL (1080p) Видео: 1920x1080 (16:9), 23,976 fps, AVC (х264), High@L4, ~5000 Kbps avg, 0.101 bit/pixel Аудио RUS: 48 kHz, AC3, 2/0 (L,R) ch, ~192 kbps avg Аудио ENG: 48 kHz, E-AC3, 3/2 (L,C,R,l,r) + LFE ch, ~640 kbps avg
[+] Содержание01. Часть I: Умри для себя / Part I: Die to Yourself 02. Часть II: Побег / Part II: The Escape 03. Часть III: Пожинайте то, что посеяли / Part III: Reap What You Sow
[+] MediaInfoОбщее Уникальный идентификатор : 304383080000760483514737866787049225970 (0xE4FE0C805FAE48C2C87DF0980C48BEF2) Полное имя : Dancing.for.the.Devil.The.7M.TikTok.Cult.2024.S01E01.WEB-DL.1080p.NF.RHS.mkv Формат : Matroska Версия формата : Version 4 Размер файла : 2,32 Гбайт Продолжительность : 58 мин. 18 с. Режим общего битрейта : Переменный Общий битрейт : 5 697 Кбит/сек Частота кадров : 23,976 кадра/сек Дата кодирования : 2024-06-29 11:04:38 UTC Программа кодирования : mkvmerge v68.0.0 ('The Curtain') 64-bit Библиотека кодирования : libebml v1.4.2 + libmatroska v1.6.4 Видео Идентификатор : 1 Формат : AVC Формат/Информация : Advanced Video Codec Профиль формата : Main@L4 Настройки формата : CABAC / 3 Ref Frames Параметр CABAC формата : Да Параметр RefFrames формата : 3 кадра Идентификатор кодека : V_MPEG4/ISO/AVC Продолжительность : 58 мин. 18 с. Вид битрейта : Переменный Битрейт : 5 000 Кбит/сек Максимальный битрейт : 7 500 Кбит/сек Ширина : 1 920 пикселей Высота : 1 080 пикселей Соотношение сторон дисплея : 16:9 Режим частоты кадров : Постоянный Частота кадров : 23,976 (24000/1001) кадра/сек Цветовое пространство : YUV Цветовая субдискретизация : 4:2:0 Битовая глубина : 8 бит Тип развёртки : Прогрессивная Бит/(Пиксели*Кадры) : 0.101 Размер потока : 1,98 Гбайт (85%) Библиотека кодирования : x264 core 148 r2727 7d026e8 Параметры библиотеки кодирования : cabac=1 / ref=3 / deblock=1:0:0 / analyse=0x1:0x111 / me=umh / subme=10 / psy=1 / psy_rd=1.00:0.00 / mixed_ref=1 / me_range=24 / chroma_me=1 / trellis=2 / 8x8dct=0 / cqm=0 / deadzone=21,11 / fast_pskip=1 / chroma_qp_offset=-2 / threads=6 / lookahead_threads=1 / sliced_threads=0 / nr=0 / decimate=1 / interlaced=0 / bluray_compat=0 / stitchable=1 / constrained_intra=0 / bframes=2 / b_pyramid=0 / b_adapt=2 / b_bias=0 / direct=3 / weightb=1 / open_gop=0 / weightp=2 / keyint=240 / keyint_min=121 / scenecut=0 / intra_refresh=0 / rc_lookahead=48 / rc=2pass / mbtree=1 / bitrate=5000 / ratetol=1.0 / qcomp=0.50 / qpmin=6 / qpmax=51 / qpstep=4 / cplxblur=20.0 / qblur=0.5 / vbv_maxrate=7500 / vbv_bufsize=10000 / nal_hrd=vbr / filler=0 / ip_ratio=1.40 / aq=1:1.00 Язык : Английский По умолчанию : Да Принудительно : Нет Аудио #1 Идентификатор : 2 Формат : AC-3 Формат/Информация : Audio Coding 3 Коммерческое название : Dolby Digital Идентификатор кодека : A_AC3 Продолжительность : 58 мин. 18 с. Вид битрейта : Постоянный Битрейт : 192 Кбит/сек Канал(-ы) : 2 канала Расположение каналов : L R Частота дискретизации : 48,0 КГц Частота кадров : 31,250 кадров/сек (1536 SPF) Метод сжатия : С потерями Размер потока : 80,1 Мбайт (3%) Язык : Русский По умолчанию : Да Принудительно : Нет Нормализация звука речи : -31 dB dialnorm_Average : -31 dB dialnorm_Minimum : -31 dB dialnorm_Maximum : -31 dB Аудио #2 Идентификатор : 3 Формат : E-AC-3 Формат/Информация : Enhanced AC-3 Коммерческое название : Dolby Digital Plus Идентификатор кодека : A_EAC3 Продолжительность : 58 мин. 18 с. Вид битрейта : Постоянный Битрейт : 640 Кбит/сек Канал(-ы) : 6 каналов Расположение каналов : L R C LFE Ls Rs Частота дискретизации : 48,0 КГц Частота кадров : 31,250 кадров/сек (1536 SPF) Метод сжатия : С потерями Размер потока : 267 Мбайт (11%) Язык : Английский По умолчанию : Нет Принудительно : Нет Нормализация звука речи : -27 dB compr : -0.28 dB dialnorm_Average : -27 dB dialnorm_Minimum : -27 dB dialnorm_Maximum : -27 dB Текст #1 Идентификатор : 4 Формат : UTF-8 Идентификатор кодека : S_TEXT/UTF8 Идентификатор кодека/Информация : UTF-8 Plain Text Продолжительность : 56 мин. 53 с. Битрейт : 151 бит/сек Частота кадров : 0,284 кадр/сек Число элементов : 968 Размер потока : 63,1 КиБ (0%) Язык : Русский По умолчанию : Нет Принудительно : Нет Текст #2 Идентификатор : 5 Формат : UTF-8 Идентификатор кодека : S_TEXT/UTF8 Идентификатор кодека/Информация : UTF-8 Plain Text Продолжительность : 56 мин. 20 с. Битрейт : 100 бит/сек Частота кадров : 0,275 кадр/сек Число элементов : 929 Размер потока : 41,4 КиБ (0%) Язык : Английский По умолчанию : Нет Принудительно : Нет Меню 00:00:00.000 : en:Part 01 00:56:31.450 : en:Credits
[+] Скриншоты

Всего файлов в раздаче: 3 
Dancing.for.the.Devil.The.7M.TikTok.Cult.2024.S01E01.WEB-DL.1080p.NF.RHS.mkv2.32 GB
Dancing.for.the.Devil.The.7M.TikTok.Cult.2024.S01E02.WEB-DL.1080p.NF.RHS.mkv2.12 GB
Dancing.for.the.Devil.The.7M.TikTok.Cult.2024.S01E03.WEB-DL.1080p.NF.RHS.mkv1.94 GB

Комментарии


Зарегистрируйтесь чтобы добавить комментарий
Торрент клиент
byTorrent - программа для загрузки торрент-файлов.

Скачать byTorrent.exe (1,5 МБ)

Скачать byTorrent.zip (0,6 МБ)

Поддержи torrent.by
российских рублей
(300 российских рублей это 4$)

Обратная связь rss

End game ©