↑↓torrent.by
Поиск
Логин:  Регистрация
Пароль:

VA - Afrobeat Vol. 3 (2024) FLAC

download Скачать торрент-файл   magnet Магнитная ссылка Размер: 192.52 MB Добавлен: 2024-07-08 11:00
Пиры будут получены из сети DHT
Последний сидер был замечен 2024-07-13 16:12
VA - Afrobeat Vol. 3 (2024) Жанр: Lounge, Downtempo, Soul Издание: Music Brokers Источник: qobuz Продолжительность: 00:32:12 Кодек: FLAC Битрейт: Lossless|WEB-DL Тип рипа: tracks Треклист: 01. Rhythmic Control - Burghalle (2:08) 02. Space Afro, Monsoon - I Told You (2:19) 03. D G - Don't Stop Tonight (2:04) 04. Special Cutlab - Happy (2:17) 05. Sergio Novaes - In The Backseat (2:22) 06. Future Soundscapes - Let It Go (2:04) 07. Golden Smirk - More than That (2:04) 08. Rolla - Snowflakes (2:01) 09. Beleza Mourao - Turn Me Up (2:04) 10. Eccko - What They Say About Us (2:01) 11. Eternal Trip - African Love (2:03) 12. Ama Lur - Dance (2:33) 13. Bristol Love - No More (1:49) 14. Rhythmic Control - So Easy To Love (2:08) 15. Shamanic Dub - Waiting For You (2:16)
[+] DR Log: foobar2000 1.6.12 / Замер динамического диапазона (DR) 1.1.1 Дата отчёта: 2024-07-06 11:53:21 -------------------------------------------------------------------------------- Анализ: Ama Lur / Afrobeat Vol. 3 (1) Beleza Mourao / Afrobeat Vol. 3 (2) Bristol Love / Afrobeat Vol. 3 (3) D G / Afrobeat Vol. 3 (4) Eccko / Afrobeat Vol. 3 (5) Eternal Trip / Afrobeat Vol. 3 (6) Future Soundscapes / Afrobeat Vol. 3 (7) Golden Smirk / Afrobeat Vol. 3 (8) Rhythmic Control / Afrobeat Vol. 3 (9-10) Rolla / Afrobeat Vol. 3 (11) Sergio Novaes / Afrobeat Vol. 3 (12) Shamanic Dub / Afrobeat Vol. 3 (13) Space Afro, Monsoon / Afrobeat Vol. 3 (14) Special Cutlab / Afrobeat Vol. 3 (15) -------------------------------------------------------------------------------- DR Пики RMS Продолжительность трека -------------------------------------------------------------------------------- DR6 0.00 дБ -8.22 дБ 2:33 ?-Dance DR8 -0.16 дБ -9.64 дБ 2:04 ?-Turn Me Up DR4 -0.30 дБ -6.96 дБ 1:49 ?-No More DR8 -0.15 дБ -9.66 дБ 2:04 ?-Don't Stop Tonight DR9 -0.15 дБ -10.70 дБ 2:01 ?-What They Say About Us DR9 -0.15 дБ -10.11 дБ 2:03 ?-African Love DR8 0.00 дБ -8.89 дБ 2:04 ?-Let It Go DR8 0.00 дБ -9.38 дБ 2:04 ?-More than That DR7 0.00 дБ -9.10 дБ 2:08 ?-Burghalle DR10 -0.15 дБ -12.38 дБ 2:08 ?-So Easy To Love DR7 0.00 дБ -8.67 дБ 2:01 ?-Snowflakes DR6 0.00 дБ -7.53 дБ 2:22 ?-In The Backseat DR8 0.00 дБ -10.12 дБ 2:16 ?-Waiting For You DR6 -0.31 дБ -7.87 дБ 2:19 ?-I Told You DR6 -0.29 дБ -9.96 дБ 2:17 ?-Happy -------------------------------------------------------------------------------- Количество треков: 15 Реальные значения DR: DR7 Частота: 44100 Гц Каналов: 2 Разрядность: 16 Битрейт: 723 кбит/с Кодек: FLAC ================================================================================
[+] Отчёт auCDtect Task manager: ----------------------- DON'T MODIFY THIS FILE ----------------------- PERFORMER: auCDtect Task Manager, ver. 1.6.0 RC1 build 1.6.0.1 Copyright (c) 2008-2010 y-soft. All rights reserved http://y-soft.org ANALYZER: auCDtect: CD records authenticity detector, version 0.8.2 Copyright (c) 2004 Oleg Berngardt. All rights reserved. Copyright (c) 2004 Alexander Djourik. All rights reserved. FILE: 01 - Rhythmic Control - Burghalle.flac Size: 12819266 Hash: 77567C1240E0ABEB633BD639FCCD0485 Accuracy: -m0 Conclusion: CDDA 100% Signature: C893B54F59E4539D01052071B274DA7241322DEF FILE: 02 - Space Afro, Monsoon - I Told You.flac Size: 11830809 Hash: FA6FEBDB21EC4A0E608519475E00BFBA Accuracy: -m0 Conclusion: CDDA 100% Signature: 8AE4F7375431A12BD7DAD502525D48F3462E607E FILE: 03 - D G - Don't Stop Tonight.flac Size: 14700702 Hash: 9B6E8A9DFB1DBD1A083E511BC9F9156A Accuracy: -m0 Conclusion: CDDA 100% Signature: A25DC8BBA271F437CB81483F9AF41201A09633DD FILE: 04 - Special Cutlab - Happy.flac Size: 12607542 Hash: 768BB0C0305BA85C090EEBB72B57DEB7 Accuracy: -m0 Conclusion: CDDA 100% Signature: 42C8D5D359BB1759989B2986A73C122B52F4BD6C FILE: 05 - Sergio Novaes - In The Backseat.flac Size: 14687094 Hash: F1D88B5F8F13FA78A607DB6486453848 Accuracy: -m0 Conclusion: CDDA 99% Signature: 013E616936AB0FE50D8B20BA24FB8CA6EA2DD1D7 FILE: 06 - Future Soundscapes - Let It Go.flac Size: 15328373 Hash: 24F324755E8DF71777BF148BFE0B134D Accuracy: -m0 Conclusion: CDDA 100% Signature: FBF0AFFE82BE7EA204318910D2891D8214641852 FILE: 07 - Golden Smirk - More than That.flac Size: 14352092 Hash: 4AB8F3FDA8818C630A0CE93F55CFCA77 Accuracy: -m0 Conclusion: CDDA 100% Signature: 2B4E73C693AB505743ED98D67CE23D9676194EE6 FILE: 08 - Rolla - Snowflakes.flac Size: 11712109 Hash: 56F340D0BD83EC4DF6E278D1D5BC5716 Accuracy: -m0 Conclusion: CDDA 100% Signature: 345E27FB18E725F08588D4058222EFB87ED066C0 FILE: 09 - Beleza Mourao - Turn Me Up.flac Size: 13594692 Hash: 03F9DF7501FB279A6964EE081993E663 Accuracy: -m0 Conclusion: CDDA 100% Signature: 3548052C47FB792436E6105619A9720FBF6FD68F FILE: 10 - Eccko - What They Say About Us.flac Size: 13163928 Hash: 7AE472A47384B9C95F30CCD4846A8D1B Accuracy: -m0 Conclusion: CDDA 100% Signature: 109C61EEA63B7718A386C410A4D2048211517AD9 FILE: 11 - Eternal Trip - African Love.flac Size: 13118343 Hash: 75BF1530939F1AF0B098DC8D6632FA92 Accuracy: -m0 Conclusion: CDDA 100% Signature: C5145ED180A9F7BB2C2E43928455DB97B51454E7 FILE: 12 - Ama Lur - Dance.flac Size: 15712404 Hash: 44DEB465979DC9B6368284FD0602A1AA Accuracy: -m0 Conclusion: CDDA 100% Signature: 1AF1812FEC07190E882324CED1FF0D3B348CEB64 FILE: 13 - Bristol Love - No More.flac Size: 12438395 Hash: 38878B39C3F5FE428D600758F858B6A7 Accuracy: -m0 Conclusion: CDDA 100% Signature: 515890A0D4E5B790BAF8812BB6914BE41C63471C FILE: 14 - Rhythmic Control - So Easy To Love.flac Size: 14655448 Hash: 1FB1D663E0ABD93AE6FC5700B67B4947 Accuracy: -m0 Conclusion: CDDA 100% Signature: EA627A9582377C9CC2EBA1A77078780B4AABC10F FILE: 15 - Shamanic Dub - Waiting For You.flac Size: 11068829 Hash: 1791FD31182F9BA64EC2BD13D8B5853C Accuracy: -m0 Conclusion: CDDA 100% Signature: 9A058F63793525BB7E656438C79B134AAADF8C50

Всего файлов в раздаче: 16 
01 - Rhythmic Control - Burghalle.flac12.23 MB
02 - Space Afro, Monsoon - I Told You.flac11.28 MB
03 - D G - Don't Stop Tonight.flac14.02 MB
04 - Special Cutlab - Happy.flac12.02 MB
05 - Sergio Novaes - In The Backseat.flac14.01 MB
06 - Future Soundscapes - Let It Go.flac14.62 MB
07 - Golden Smirk - More than That.flac13.69 MB
08 - Rolla - Snowflakes.flac11.17 MB
09 - Beleza Mourao - Turn Me Up.flac12.96 MB
10 - Eccko - What They Say About Us.flac12.55 MB
Показать все файлы

Комментарии


Зарегистрируйтесь чтобы добавить комментарий
Торрент клиент
byTorrent - программа для загрузки торрент-файлов.

Скачать byTorrent.exe (1,5 МБ)

Скачать byTorrent.zip (0,6 МБ)

Поддержи torrent.by
российских рублей
(300 российских рублей это 4$)

Обратная связь rss

End game ©