↑↓torrent.by
Поиск
Логин:  Регистрация
Пароль:

Мальчик и птица / Kimitachi Wa Dou Ikiru Ka / The Boy And The Heron (2023) UHD BDRemux 2160p | 4K | HDR | Dolby Vision Profile 7 | D

download Скачать торрент-файл   magnet Магнитная ссылка Размер: 79.81 GB Добавлен: 2024-07-08 11:00
Пиры будут получены из сети DHT
Последний сидер был замечен 2024-07-16 10:47
Название: Мальчик и птица Оригинальное название: Kimitachi Wa Dou Ikiru Ka / The Boy And The Heron Год выхода: 2023 Производство: Япония / Studio Ghibli, Toho Жанр: Приключения, драма, фэнтези Перевод: Дублированный профессиональный Продолжительность: 02:03:56 Режиссёр: Хаяо Миядзаки В ролях: Сома Сантоки, Масаки Суда, Аимён, Ёсино Кимура, Ко Сибасаки, Сёхэи Хино, Такуя Кимура, Дзюн Кунимура, Каору Кобаяси, Дзюн Фубуки Описание: Через три года после начала Тихоокеанской войны ,мама мальчика Махито погибла при пожаре в Токио, а ещё через год отец женился на её сестре и отправил сына в фамильное поместье в сельской местности. Глава семьи работает на оборонном заводе и редко бывает дома, поэтому мальчику приходится проводить дни с беременной мачехой и в окружении пожилой прислуги, и, кроме того, с самого первого дня его донимает подозрительная серая цапля. Однажды птица говорит Махито, что может отвести его к матери и заманивает в загадочную башню, которую окружает множество местных легенд. Формат: MKV Качество: UHD BDRemux 2160p Видео: MPEGH HEVC / ~81.3 Mb/s / 3840x2160 / 0.409 Бит/(Пиксели*Кадры) / 23.976 fps Аудио 01: E-AC-3, 6 ch, 448 kbps | Русский, DUB | CPI Films | Аудио 02: E-AC-3, 6 ch, 448 kbps | Русский, DUB | Студийная банда | Аудио 03: TrueHD+Atmos, 8 ch, 4156 kbps | Японский | Аудио 04: E-AC-3 JOC, 6 ch, 768 kbps | Японский | Аудио 05: TrueHD+Atmos, 8 ch, 4256 kbps | Английский | Аудио 06: AC-3, 6 ch, 640 kbps | Английский | Субтитры: Русские (Forced, Full), английские (Forced, Full)
[+] MediainfoGeneral Unique ID : 313208616563027005817817693393835046126 (0xEBA1C90C8F130C57A6B61161F4FCB4EE) Complete name : E:The.Boy.and.the.Heron.2023.4K.HDR.DV.2160p.BDRemux-TORRNADO.mkv Format : Matroska Format version : Version 4 File size : 79.8 GiB Duration : 2 h 3 min Overall bit rate mode : Variable Overall bit rate : 92.2 Mb/s Frame rate : 23.976 FPS Encoded date : 2024-07-07 12:33:25 UTC Writing application : mkvmerge v73.0.0 ('25 or 6 to 4') 64-bit Writing library : libebml v1.4.4 + libmatroska v1.7.1 Video ID : 1 Format : HEVC Format/Info : High Efficiency Video Coding Format profile : Main 10@L5.1@High HDR format : Dolby Vision, Version 1.0, dvhe.07.06, BL+EL+RPU, Blu-ray compatible / SMPTE ST 2086, HDR10 compatible Codec ID : V_MPEGH/ISO/HEVC Duration : 2 h 3 min Bit rate : 81.3 Mb/s Width : 3 840 pixels Height : 2 160 pixels Display aspect ratio : 16:9 Frame rate mode : Constant Frame rate : 23.976 (24000/1001) FPS Color space : YUV Chroma subsampling : 4:2:0 (Type 2) Bit depth : 10 bits Bits/(Pixel*Frame) : 0.409 Stream size : 70.4 GiB (88%) Default : Yes Forced : No Color range : Limited Color primaries : BT.2020 Transfer characteristics : PQ Matrix coefficients : BT.2020 non-constant Mastering display color primar : BT.2020 Mastering display luminance : min: 0.0001 cd/m2, max: 1000 cd/m2 Maximum Content Light Level : 991 cd/m2 Maximum Frame-Average Light Le : 299 cd/m2 Audio #1 ID : 2 Format : E-AC-3 Format/Info : Enhanced AC-3 Commercial name : Dolby Digital Plus Codec ID : A_EAC3 Duration : 2 h 3 min Bit rate mode : Constant Bit rate : 448 kb/s Channel(s) : 6 channels Channel layout : L R C LFE Ls Rs Sampling rate : 48.0 kHz Frame rate : 31.250 FPS (1536 SPF) Compression mode : Lossy Stream size : 397 MiB (0%) Title : Профессиональный (полное дублирование) - CPI Films Language : Russian Service kind : Complete Main Default : Yes Forced : No Audio #2 ID : 3 Format : E-AC-3 Format/Info : Enhanced AC-3 Commercial name : Dolby Digital Plus Codec ID : A_EAC3 Duration : 2 h 3 min Bit rate mode : Constant Bit rate : 448 kb/s Channel(s) : 6 channels Channel layout : L R C LFE Ls Rs Sampling rate : 48.0 kHz Frame rate : 31.250 FPS (1536 SPF) Compression mode : Lossy Stream size : 397 MiB (0%) Title : Профессиональный (полное дублирование) - Студийная банда Language : Russian Service kind : Complete Main Default : No Forced : No Audio #3 ID : 4 Format : MLP FBA 16-ch Format/Info : Meridian Lossless Packing FBA with 16-channel presentation Commercial name : Dolby TrueHD with Dolby Atmos Codec ID : A_TRUEHD Duration : 2 h 3 min Bit rate mode : Variable Bit rate : 4 156 kb/s Maximum bit rate : 6 408 kb/s Channel(s) : 8 channels Channel layout : L R C LFE Ls Rs Lb Rb Sampling rate : 48.0 kHz Frame rate : 1 200.000 FPS (40 SPF) Bit depth : 24 bits Compression mode : Lossless Stream size : 3.60 GiB (5%) Language : Japanese Default : No Forced : No Number of dynamic objects : 11 Bed channel count : 1 channel Bed channel configuration : LFE Audio #4 ID : 5 Format : E-AC-3 JOC Format/Info : Enhanced AC-3 with Joint Object Coding Commercial name : Dolby Digital Plus with Dolby Atmos Codec ID : A_EAC3 Duration : 2 h 3 min Bit rate mode : Constant Bit rate : 768 kb/s Channel(s) : 6 channels Channel layout : L R C LFE Ls Rs Sampling rate : 48.0 kHz Frame rate : 31.250 FPS (1536 SPF) Compression mode : Lossy Stream size : 681 MiB (1%) Language : Japanese Service kind : Complete Main Default : No Forced : No Complexity index : 16 Number of dynamic objects : 15 Bed channel count : 1 channel Bed channel configuration : LFE Audio #5 ID : 6 Format : MLP FBA 16-ch Format/Info : Meridian Lossless Packing FBA with 16-channel presentation Commercial name : Dolby TrueHD with Dolby Atmos Codec ID : A_TRUEHD Duration : 2 h 3 min Bit rate mode : Variable Bit rate : 4 256 kb/s Maximum bit rate : 6 519 kb/s Channel(s) : 8 channels Channel layout : L R C LFE Ls Rs Lb Rb Sampling rate : 48.0 kHz Frame rate : 1 200.000 FPS (40 SPF) Bit depth : 24 bits Compression mode : Lossless Stream size : 3.68 GiB (5%) Language : English Default : No Forced : No Number of dynamic objects : 11 Bed channel count : 1 channel Bed channel configuration : LFE Audio #6 ID : 7 Format : AC-3 Format/Info : Audio Coding 3 Commercial name : Dolby Digital Codec ID : A_AC3 Duration : 2 h 3 min Bit rate mode : Constant Bit rate : 640 kb/s Channel(s) : 6 channels Channel layout : L R C LFE Ls Rs Sampling rate : 48.0 kHz Frame rate : 31.250 FPS (1536 SPF) Compression mode : Lossy Stream size : 567 MiB (1%) Language : English Service kind : Complete Main Default : No Forced : No Text #1 ID : 8 Format : UTF-8 Codec ID : S_TEXT/UTF8 Codec ID/Info : UTF-8 Plain Text Duration : 2 h 0 min Bit rate : 3 b/s Frame rate : 0.006 FPS Count of elements : 40 Stream size : 2.84 KiB (0%) Title : Forsed Language : Russian Default : Yes Forced : No Text #2 ID : 9 Format : UTF-8 Codec ID : S_TEXT/UTF8 Codec ID/Info : UTF-8 Plain Text Duration : 2 h 2 min Bit rate : 48 b/s Frame rate : 0.122 FPS Count of elements : 897 Stream size : 43.3 KiB (0%) Title : Full Language : Russian Default : No Forced : No Text #3 ID : 10 Format : UTF-8 Codec ID : S_TEXT/UTF8 Codec ID/Info : UTF-8 Plain Text Duration : 2 h 3 min Bit rate : 24 b/s Frame rate : 0.113 FPS Count of elements : 838 Stream size : 22.2 KiB (0%) Language : English (US) Default : No Forced : No Text #4 ID : 11 Format : UTF-8 Codec ID : S_TEXT/UTF8 Codec ID/Info : UTF-8 Plain Text Duration : 2 h 3 min Bit rate : 30 b/s Frame rate : 0.163 FPS Count of elements : 1210 Stream size : 27.8 KiB (0%) Title : SDH Language : English (US) Default : No Forced : No Text #5 ID : 12 Format : UTF-8 Codec ID : S_TEXT/UTF8 Codec ID/Info : UTF-8 Plain Text Duration : 2 h 1 min Bit rate : 2 b/s Frame rate : 0.005 FPS Count of elements : 39 Stream size : 1.82 KiB (0%) Title : For signs/writing and end credits song on English Dub Language : English (US) Default : No Forced : Yes Text #6 ID : 13 Format : UTF-8 Codec ID : S_TEXT/UTF8 Codec ID/Info : UTF-8 Plain Text Duration : 2 h 2 min Bit rate : 34 b/s Frame rate : 0.147 FPS Count of elements : 1087 Stream size : 31.0 KiB (0%) Title : For English Dub Language : English (US) Default : No Forced : No Text #7 ID : 14 Format : UTF-8 Codec ID : S_TEXT/UTF8 Codec ID/Info : UTF-8 Plain Text Duration : 2 h 3 min Bit rate : 41 b/s Frame rate : 0.201 FPS Count of elements : 1489 Stream size : 37.7 KiB (0%) Title : For English Dub / SDH Language : English (US) Default : No Forced : No Menu 00:00:00.000 : en:Chapter 01 00:05:30.163 : en:Chapter 02 00:10:16.449 : en:Chapter 03 00:17:07.860 : en:Chapter 04 00:20:44.076 : en:Chapter 05 00:24:12.284 : en:Chapter 06 00:29:22.594 : en:Chapter 07 00:35:32.964 : en:Chapter 08 00:41:40.331 : en:Chapter 09 00:50:10.841 : en:Chapter 10 00:57:36.286 : en:Chapter 11 01:02:38.588 : en:Chapter 12 01:05:09.739 : en:Chapter 13 01:09:34.003 : en:Chapter 14 01:12:57.206 : en:Chapter 15 01:15:44.373 : en:Chapter 16 01:19:13.582 : en:Chapter 17 01:21:14.703 : en:Chapter 18 01:24:41.910 : en:Chapter 19 01:27:23.071 : en:Chapter 20 01:30:03.231 : en:Chapter 21 01:35:21.549 : en:Chapter 22 01:39:53.821 : en:Chapter 23 01:45:20.147 : en:Chapter 24 01:47:45.292 : en:Chapter 25 01:51:22.509 : en:Chapter 26 01:59:19.026 : en:Chapter 27 02:03:56.095 : en:Chapter 28
[+] Скриншоты

Всего файлов в раздаче: 1 
The.Boy.and.the.Heron.2023.4K.HDR.DV.2160p.BDRemux-TORRNADO.mkv79.81 GB

Похожие раздачи по запросу - Мальчик
2024-07-13 magnet Мальчик и птица / Kimitachi Wa Dou Ikiru Ka / The Boy And The Heron (2023) BDRip 1080p от Generalfilm | D 6.62 GB ↑ 0 ↓ 1
2024-07-11 magnet Мальчик и птица / Kimitachi Wa Dou Ikiru Ka / The Boy And The Heron (2023) BDRemux 1080p | D, A 27.85 GB ↑ 0 ↓ 0
2024-07-09 magnet Мальчик и птица / Kimitachi Wa Dou Ikiru Ka / The Boy And The Heron (2023) BDRip 1080p | D 10.00 GB ↑ 0 ↓ 0
2024-07-08 magnet Мальчик и птица / Kimitachi Wa Dou Ikiru Ka / The Boy And The Heron (2023) BDRip-AVC от ExKinoRay | D 1.08 GB ↑ 0 ↓ 0
2024-07-08 magnet Мальчик и птица / Kimitachi Wa Dou Ikiru Ka / The Boy And The Heron (2023) BDRemux 1080p | D 27.18 GB ↑ 0 ↓ 0
2024-07-07 magnet Мальчик и птица / Kimitachi Wa Dou Ikiru Ka / The Boy And The Heron (2023) BDRemux 1080p | D 27.18 GB ↑ 0 ↓ 1
2024-07-05 magnet Мальчик и птица / Kimitachi Wa Dou Ikiru Ka / The Boy And The Heron (2024) WEB-DLRip от ExKinoRay | D 1.46 GB ↑ 0 ↓ 0

Комментарии


Зарегистрируйтесь чтобы добавить комментарий
Торрент клиент
byTorrent - программа для загрузки торрент-файлов.

Скачать byTorrent.exe (1,5 МБ)

Скачать byTorrent.zip (0,6 МБ)

Поддержи torrent.by
российских рублей
(300 российских рублей это 4$)

Обратная связь rss

End game ©