↑↓torrent.by
Поиск
Логин:  Регистрация
Пароль:

Змеиная топь / Quicksand (2023) BDRip-AVC от New-Team | D

download Скачать торрент-файл   magnet Магнитная ссылка Размер: 1.65 GB Добавлен: 2024-07-08 11:00
Пиры будут получены из сети DHT
Последний сидер был замечен вчера в 00:51
Змеиная топь / Quicksand Год выпуска: 2023 Выпущено: Колумбия / Dawn's Light, Elemental Stories, Sangre Films, Two Twenty Two Pictures Жанр: триллер Режиссер: Андрес Белтран / Andres Beltran В ролях: Андрес Кастанеда, Себастьян Эслава, Каролина Гайтан, Аллан Хоуко О фильме: Супруги на грани развода отправляются в поход в колумбийские тропики, чтобы попытаться наладить отношения. В глухом лесу они сталкиваются с бандитами и, убегая от пуль, попадают в лесное болото. Герои оказываются в безвыходной ситуации: они не могут самостоятельно выбраться, вокруг только дикие звери, а где-то бродят головорезы с оружием. Ситуация ухудшается еще сильнее, когда вокруг супругов начинают кружить ядовитые змеи. Продолжительность: 01:25:45 Перевод: Профессиональный (полное дублирование) | Pride Production Субтитры: Русские (full), Английские (full) Раздача от : Формат: MKV Качество: BDRip-AVC Видео: MPEG-4 AVC, (2,40:1), 1024x426, 1860 Кбит/с, 24,000 fps Аудио #1: 48 kHz, AC3 Dolby Digital, 3/2 (L,C,R,l,r) + LFE ch, ~ 448 kbps | RUS | Аудио #2: 48 kHz, AC3 Dolby Digital, 3/2 (L,C,R,l,r) + LFE ch, ~ 448 kbps | SPA |
[+] MediaInfoОбщее Уникальный идентификатор : 246184637458200694154067606095867680258 (0xB9356FBF4EFB7E043608FCED20C01602) Полное имя : D:TorrentsQuicksand.2023.BDRip-AVC_от New-Team.mkv Формат : Matroska Версия формата : Version 4 Размер файла : 1,65 Гбайт Продолжительность : 1 ч. 25 м. Общий поток : 2 757 Кбит/сек Название фильма : Quicksand.2023.BDRip-AVC_от New-Team Дата кодирования : UTC 2024-07-08 05:55:36 Программа кодирования : mkvmerge v79.0 ('Funeral Pyres') 64-bit Библиотека кодирования : libebml v1.4.4 + libmatroska v1.7.1 Видео Идентификатор : 1 Формат : AVC Формат/Информация : Advanced Video Codec Профиль формата : High@L4.1 Настройки формата : CABAC / 14 Ref Frames Параметр CABAC формата : Да Параметр RefFrames формата : 14 кадров Идентификатор кодека : V_MPEG4/ISO/AVC Продолжительность : 1 ч. 25 м. Битрейт : 1 860 Кбит/сек Ширина : 1 024 пикселя Высота : 426 пикселей Соотношение сторон : 2,40:1 Режим частоты кадров : Постоянный Частота кадров : 24,000 кадра/сек Цветовое пространство : YUV Субдискретизация насыщенности : 4:2:0 Битовая глубина : 8 бит Тип развёртки : Прогрессивная Бит/(Пиксели*Кадры) : 0.178 Размер потока : 1,11 Гбайт (67%) Библиотека кодирования : x264 core 164 r3156+57M NewTeam t_mod_New Настройки программы : cabac=1 / ref=14 / deblock=1:-3:-3 / analyse=0x3:0x133 / me=umh / subme=10 / psy=1 / fade_compensate=0.00 / psy_rd=1.03:0.07 / mixed_ref=1 / me_range=32 / chroma_me=1 / trellis=2 / 8x8dct=1 / cqm=0 / deadzone=21,11 / fast_pskip=0 / chroma_qp_offset=-3 / threads=13 / lookahead_threads=3 / sliced_threads=0 / nr=0 / decimate=0 / interlaced=0 / bluray_compat=0 / constrained_intra=0 / fgo=0 / bframes=12 / b_pyramid=2 / b_adapt=2 / b_bias=0 / direct=3 / weightb=1 / open_gop=0 / weightp=2 / keyint=240 / keyint_min=24 / scenecut=40 / intra_refresh=0 / rc_lookahead=60 / rc=2pass / mbtree=0 / bitrate=1860 / ratetol=1.0 / qcomp=0.60 / qpmin=0:0:0 / qpmax=69:69:69 / qpstep=5 / cplxblur=20.0 / qblur=0.5 / vbv_maxrate=50000 / vbv_bufsize=62500 / nal_hrd=none / filler=0 / ip_ratio=1.40 / pb_ratio=1.30 / aq=1:1.00 / aq-sensitivity=10.00 / aq-factor=1.00:1.00:1.00 / aq2=0 / aq3=0 Язык : English Default : Да Forced : Нет Аудио #1 Идентификатор : 2 Формат : AC-3 Формат/Информация : Audio Coding 3 Коммерческое название : Dolby Digital Идентификатор кодека : A_AC3 Продолжительность : 1 ч. 25 м. Вид битрейта : Постоянный Битрейт : 448 Кбит/сек Каналы : 6 каналов Channel layout : L R C LFE Ls Rs Частота : 48,0 КГц Частота кадров : 31,250 кадров/сек (1536 SPF) Метод сжатия : С потерями Размер потока : 275 Мбайт (16%) Заголовок : DUB - Pride Production Язык : Russian Service kind : Complete Main Default : Да Forced : Нет Аудио #2 Идентификатор : 3 Формат : AC-3 Формат/Информация : Audio Coding 3 Коммерческое название : Dolby Digital Идентификатор кодека : A_AC3 Продолжительность : 1 ч. 25 м. Вид битрейта : Постоянный Битрейт : 448 Кбит/сек Каналы : 6 каналов Channel layout : L R C LFE Ls Rs Частота : 48,0 КГц Частота кадров : 31,250 кадров/сек (1536 SPF) Метод сжатия : С потерями Размер потока : 275 Мбайт (16%) Заголовок : Original Язык : Spanish Service kind : Complete Main Default : Нет Forced : Нет Текст #1 Идентификатор : 4 Формат : UTF-8 Идентификатор кодека : S_TEXT/UTF8 Идентификатор кодека/Информация : UTF-8 Plain Text Продолжительность : 1 ч. 22 м. Битрейт : 67 бит/сек Count of elements : 1168 Размер потока : 40,4 Кбайт (0%) Заголовок : Язык : Russian Default : Нет Forced : Нет Текст #2 Идентификатор : 5 Формат : UTF-8 Идентификатор кодека : S_TEXT/UTF8 Идентификатор кодека/Информация : UTF-8 Plain Text Продолжительность : 1 ч. 18 м. Битрейт : 46 бит/сек Count of elements : 901 Размер потока : 26,4 Кбайт (0%) Заголовок : Язык : English Default : Нет Forced : Нет Меню 00:00:00.000 : :Chapter 01 00:03:10.582 : :Chapter 02 00:13:57.040 : :Chapter 03 00:19:32.125 : :Chapter 04 00:30:55.833 : :Chapter 05 00:38:04.875 : :Chapter 06 00:49:45.500 : :Chapter 07 00:54:23.208 : :Chapter 08 01:00:38.875 : :Chapter 09 01:08:32.125 : :Chapter 10 01:15:30.125 : :Chapter 11 01:22:53.166 : :Chapter 12 01:25:45.082 : :Chapter 13

Всего файлов в раздаче: 1 
Quicksand.2023.BDRip-AVC_от New-Team.mkv1.65 GB

Похожие раздачи по запросу - Змеиная
2024-07-08 magnet Змеиная топь / Quicksand (2023) BDRip 1080p от MegaPeer | D 6.99 GB ↑ 0 ↓ 2
2024-07-08 magnet Змеиная топь / Quicksand (2023) BDRip от MegaPeer | D 1.46 GB ↑ 0 ↓ 1

Комментарии


Зарегистрируйтесь чтобы добавить комментарий
Торрент клиент
byTorrent - программа для загрузки торрент-файлов.

Скачать byTorrent.exe (1,5 МБ)

Скачать byTorrent.zip (0,6 МБ)

Поддержи torrent.by
российских рублей
(300 российских рублей это 4$)

Обратная связь rss

End game ©