↑↓torrent.by
Поиск
Логин:  Регистрация
Пароль:

Мальчик и птица / Kimitachi Wa Dou Ikiru Ka / The Boy And The Heron (2023) BDRip-AVC от ExKinoRay | D

download Скачать торрент-файл   magnet Магнитная ссылка Размер: 1.08 GB Добавлен: 2024-07-08 11:00
Пиры будут получены из сети DHT
Последний сидер был замечен 2024-07-08 17:37
Информация о фильме Название: Мальчик и птица Оригинальное название: Kimitachi Wa Dou Ikiru Ka / The Boy And The Heron Год выхода: 2023 Жанр: Аниме, мультфильм, фэнтези, драма, приключения Режиссер: Хаяо Миядзаки В ролях: Сома Сантоки, Масаки Суда, Аимён, Ёсино Кимура, Ко Сибасаки, Сёхэи Хино, Такуя Кимура, Дзюн Кунимура, Каору Кобаяси, Дзюн Фубуки О фильме: Через три года после начала Тихоокеанской войны ,мама мальчика Махито погибла при пожаре в Токио, а ещё через год отец женился на её сестре и отправил сына в фамильное поместье в сельской местности. Глава семьи работает на оборонном заводе и редко бывает дома, поэтому мальчику приходится проводить дни с беременной мачехой и в окружении пожилой прислуги, и, кроме того, с самого первого дня его донимает подозрительная серая цапля. Однажды птица говорит Махито, что может отвести его к матери и заманивает в загадочную башню, которую окружает множество местных легенд. Страна: Япония Студия: Studio Ghibli Продолжительность: 02:03:56 Перевод: Дублированный Файл Формат: MKV Качество: BDRip-AVC Видео: MPEG-4 AVC, 756x408, 1072 Кбит/с Аудио #1: AAC-HE, 2 ch, 84 Кбит/с | Дубляж, CPI Films | Аудио #2: AAC-HE, 2 ch, 84 Кбит/с | Дубляж, Студийная банда | Субтитры: Русские (Forced, Full)
[+] MIОбщее Уникальный идентификатор : 211188553159028469486500831307551184944 (0x9EE16F937A40D135DF10785A49F39830) Полное имя : D:MOVIESThe.Boy.And.The.Heron.2023.BDRip-AVC.ExKinoRay.mkv Формат : Matroska Версия формата : Version 4 Размер файла : 1,08 Гбайт Продолжительность : 2 ч. 3 мин. Общий битрейт : 1 244 Кбит/сек Частота кадров : 23,976 кадра/сек Дата кодирования : 2024-07-07 15:48:52 UTC Программа кодирования : mkvmerge v45.0.0 ('Heaven in Pennies') 64-bit Библиотека кодирования : libebml v1.3.10 + libmatroska v1.5.2 Видео Идентификатор : 1 Формат : AVC Формат/Информация : Advanced Video Codec Профиль формата : High@L4.1 Настройки формата : CABAC / 11 Ref Frames Параметр CABAC формата : Да Параметр RefFrames формата : 11 кадров Идентификатор кодека : V_MPEG4/ISO/AVC Продолжительность : 2 ч. 3 мин. Битрейт : 1 072 Кбит/сек Ширина : 756 пикселей Высота : 408 пикселей Соотношение сторон дисплея : 1,85:1 Режим частоты кадров : Постоянный Частота кадров : 23,976 (24000/1001) кадра/сек Цветовое пространство : YUV Цветовая субдискретизация : 4:2:0 Битовая глубина : 8 бит Тип развёртки : Прогрессивная Бит/(Пиксели*Кадры) : 0.145 Размер потока : 952 Мбайт (86%) Библиотека кодирования : x264 core 164 r3190 7ed753b Параметры библиотеки кодирования : cabac=1 / ref=11 / deblock=1:-2:-2 / analyse=0x3:0x133 / me=umh / subme=10 / psy=1 / psy_rd=1.05:0.08 / mixed_ref=1 / me_range=32 / chroma_me=1 / trellis=2 / 8x8dct=1 / cqm=0 / deadzone=21,11 / fast_pskip=0 / chroma_qp_offset=-3 / threads=6 / lookahead_threads=1 / sliced_threads=0 / nr=0 / decimate=0 / interlaced=0 / bluray_compat=0 / constrained_intra=0 / bframes=10 / b_pyramid=2 / b_adapt=2 / b_bias=0 / direct=3 / weightb=1 / open_gop=0 / weightp=2 / keyint=240 / keyint_min=23 / scenecut=40 / intra_refresh=0 / rc=2pass / mbtree=0 / bitrate=1072 / ratetol=1.0 / qcomp=0.60 / qpmin=0 / qpmax=69 / qpstep=4 / cplxblur=20.0 / qblur=0.5 / ip_ratio=1.40 / pb_ratio=1.30 / aq=3:1.00 Язык : Японский По умолчанию : Да Принудительно : Нет Цветовой диапазон : Limited Основные цвета : BT.709 Характеристики трансфера : BT.709 Коэффициенты матрицы : BT.709 Аудио #1 Идентификатор : 2 Формат : AAC LC SBR Формат/Информация : Advanced Audio Codec Low Complexity with Spectral Band Replication Коммерческое название : HE-AAC Настройки формата : Explicit Идентификатор кодека : A_AAC-2 Продолжительность : 2 ч. 3 мин. Битрейт : 84,0 Кбит/сек Канал(-ы) : 2 канала Расположение каналов : L R Частота дискретизации : 48,0 КГц Частота кадров : 23,438 кадра/сек (2048 SPF) Метод сжатия : С потерями Задержка видео : 31 мс. Размер потока : 74,5 Мбайт (7%) Заголовок : CPI Films Язык : Русский По умолчанию : Да Принудительно : Нет Аудио #2 Идентификатор : 3 Формат : AAC LC SBR Формат/Информация : Advanced Audio Codec Low Complexity with Spectral Band Replication Коммерческое название : HE-AAC Настройки формата : Explicit Идентификатор кодека : A_AAC-2 Продолжительность : 2 ч. 3 мин. Битрейт : 84,0 Кбит/сек Канал(-ы) : 2 канала Расположение каналов : L R Частота дискретизации : 48,0 КГц Частота кадров : 23,438 кадра/сек (2048 SPF) Метод сжатия : С потерями Задержка видео : 31 мс. Размер потока : 74,5 Мбайт (7%) Заголовок : Студийная банда Язык : Русский По умолчанию : Нет Принудительно : Нет Текст #1 Идентификатор : 4 Формат : UTF-8 Идентификатор кодека : S_TEXT/UTF8 Идентификатор кодека/Информация : UTF-8 Plain Text Продолжительность : 2 ч. 0 мин. Битрейт : 3 бит/сек Частота кадров : 0,006 кадр/сек Число элементов : 40 Размер потока : 2,84 КиБ (0%) Заголовок : Forсed Язык : Русский По умолчанию : Да Принудительно : Нет Текст #2 Идентификатор : 5 Формат : UTF-8 Идентификатор кодека : S_TEXT/UTF8 Идентификатор кодека/Информация : UTF-8 Plain Text Продолжительность : 2 ч. 2 мин. Битрейт : 48 бит/сек Частота кадров : 0,122 кадр/сек Число элементов : 897 Размер потока : 43,3 КиБ (0%) Заголовок : Full Язык : Русский По умолчанию : Нет Принудительно : Нет
[+] Скриншоты

Всего файлов в раздаче: 1 
The.Boy.And.The.Heron.2023.BDRip-AVC.ExKinoRay.mkv1.08 GB

Похожие раздачи по запросу - Мальчик
2024-07-13 magnet Мальчик и птица / Kimitachi Wa Dou Ikiru Ka / The Boy And The Heron (2023) BDRip 1080p от Generalfilm | D 6.62 GB ↑ 0 ↓ 0
2024-07-11 magnet Мальчик и птица / Kimitachi Wa Dou Ikiru Ka / The Boy And The Heron (2023) BDRemux 1080p | D, A 27.85 GB ↑ 0 ↓ 0
2024-07-09 magnet Мальчик и птица / Kimitachi Wa Dou Ikiru Ka / The Boy And The Heron (2023) BDRip 1080p | D 10.00 GB ↑ 0 ↓ 0
2024-07-08 magnet Мальчик и птица / Kimitachi Wa Dou Ikiru Ka / The Boy And The Heron (2023) UHD BDRemux 2160p | 4K | HDR | Dolby Vision Profile 7 | D 79.81 GB ↑ 0 ↓ 0
2024-07-08 magnet Мальчик и птица / Kimitachi Wa Dou Ikiru Ka / The Boy And The Heron (2023) BDRemux 1080p | D 27.18 GB ↑ 0 ↓ 0
2024-07-07 magnet Мальчик и птица / Kimitachi Wa Dou Ikiru Ka / The Boy And The Heron (2023) BDRemux 1080p | D 27.18 GB ↑ 0 ↓ 1
2024-07-05 magnet Мальчик и птица / Kimitachi Wa Dou Ikiru Ka / The Boy And The Heron (2024) WEB-DLRip от ExKinoRay | D 1.46 GB ↑ 0 ↓ 0

Комментарии


Зарегистрируйтесь чтобы добавить комментарий
Торрент клиент
byTorrent - программа для загрузки торрент-файлов.

Скачать byTorrent.exe (1,5 МБ)

Скачать byTorrent.zip (0,6 МБ)

Поддержи torrent.by
российских рублей
(300 российских рублей это 4$)

Обратная связь rss

End game ©