↑↓torrent.by
Поиск
Логин:  Регистрация
Пароль:

Сотня лжи / A Hundred Lies (2024) WEBRip-AVC | L | RGB

download Скачать торрент-файл   magnet Магнитная ссылка Размер: 1.60 GB Раздают: 6 Качают: 0 Добавлен: il68k 2024-07-08 15:14
Пиры будут получены из сети DHT
Последний сидер был замечен сегодня в 18:44
Информация о фильме Название: Сотня лжи Оригинальное название: A Hundred Lies Год выхода: 2023 Жанр: драма Режиссер: Рузбех Хейдари В ролях: Роб Рако, Дэна Абрахам, Умберли Гонсалес, Брэндон МакНайт, Джессика Эмли, Стивен Трэйси, Майкл Ксавьер, Чейз Тан, Мерседес Бланш, Ник Нейм О фильме: Рикки, 25-летний музыкант из Торонто, стоит на пороге возрождения своей музыкальной карьеры благодаря сотрудничеству с андеграундным продюсером Терренсом. Их музыка начинает набирать обороты, привлекая внимание всё большего числа слушателей. В это время певица Фиона, которая также вовлечена в их проекты, сталкивается с темной стороной прошлого Рикки, находя следы старой трагедии, которая могла бы подвергнуть риску их восходящий успех. По мере того как карьера Рикки и Фионы стремительно идет вверх, они начинают осознавать, что успех в музыкальной индустрии не приходит без жертв. Смогут ли они сохранить свою артистическую идентичность и личную честность, когда вокруг так много искушений и тайн? И какую цену придется заплатить за мечту о звездной жизни, когда тени прошлого не желают уходить? Страна: Канада Студия: Red Hill Entertainment Продолжительность: 01:34:38 Перевод: Любительский (многоголосый закадровый) | RGB Файл Формат: MKV Качество: WEBRip-AVC Видео: AVC/H.264, 720x298, ~2039, 23.976 fps Аудио: AC3, 48 kHz, 6 ch, 384 Kbps - Русский Субтитры: отсутствуют Семпл
[+] Скриншоты
[+] MediaInfo General Unique ID : 1015383024096852788329276872672759857 (0xC38E3F8B68615E9823500840B95031) Complete name : E:\RGB\1\A.Hundred.Lies.2024.WEB.MVO.5.1-RGB.mkv Format : Matroska Format version : Version 4 File size : 1.60 GiB Duration : 1 h 34 min Overall bit rate : 2 424 kb/s Frame rate : 23.976 FPS Movie name : RGB Encoded date : 2024-06-22 00:28:53 UTC Writing application : mkvmerge v82.0 ('I'm The President') 64-bit Writing library : libebml v1.4.5 + libmatroska v1.7.1 Video ID : 1 Format : AVC Format/Info : Advanced Video Codec Format profile : High@L4.1 Format settings : CABAC / 10 Ref Frames Format settings, CABAC : Yes Format settings, Reference : 10 frames Codec ID : V_MPEG4/ISO/AVC Duration : 1 h 34 min Bit rate : 2 039 kb/s Width : 720 pixels Height : 298 pixels Display aspect ratio : 2.40:1 Frame rate mode : Constant Frame rate : 23.976 (24000/1001) FPS Color space : YUV Chroma subsampling : 4:2:0 Bit depth : 8 bits Scan type : Progressive Bits/(Pixel*Frame) : 0.396 Stream size : 1.35 GiB (84%) Title : RGB Language : English Default : Yes Forced : No Audio ID : 2 Format : AC-3 Format/Info : Audio Coding 3 Commercial name : Dolby Digital Codec ID : A_AC3 Duration : 1 h 34 min Bit rate mode : Constant Bit rate : 384 kb/s Channel(s) : 6 channels Channel layout : L R C LFE Ls Rs Sampling rate : 48.0 kHz Frame rate : 31.250 FPS (1536 SPF) Compression mode : Lossy Stream size : 260 MiB (16%) Title : MVO Language : Russian Service kind : Complete Main Default : Yes Forced : No AC3_metadata cmixlev : -3.0 dB surmixlev : -6 dB
Релиз от: RGB

Всего файлов в раздаче: 1 
A.Hundred.Lies.2024.WEB.MVO.5.1-RGB.mkv1.60 GB

Похожие раздачи по запросу - Сотня
2024-07-09 magnet Сотня лжи / A Hundred Lies (2024) WEBRip-AVC | L | RGB 1.70 GB ↑ 2 ↓ 1
2024-07-08 magnet Сотня лжи / A Hundred Lies (2024) WEBRip 1080p | L | RGB 4.94 GB ↑ 2 ↓ 0

Комментарии


Зарегистрируйтесь чтобы добавить комментарий
Торрент клиент
byTorrent - программа для загрузки торрент-файлов.

Скачать byTorrent.exe (1,5 МБ)

Скачать byTorrent.zip (0,6 МБ)

Поддержи torrent.by
российских рублей
(300 российских рублей это 4$)

Обратная связь rss

End game ©