↑↓torrent.by
Поиск
Логин:  Регистрация
Пароль:

Терзание / Torment (1990) HDRip-AVC | L1

download Скачать торрент-файл   magnet Магнитная ссылка Размер: 2.01 GB Добавлен: 2024-07-08 17:00
Пиры будут получены из сети DHT
Последний сидер был замечен 2024-07-17 22:11
Информация о фильме Название: Терзание Оригинальное название: Torment Год выхода: 1990 Жанр: триллер Режиссер: Майкл Дж. Мерфи В ролях: Дэбби Стивенс, Роб Бартлетт, Фил Линдон, Катрин Роулэндс, Сара Пэйн, Патрик Олливер, Дениз Бюрс О фильме: Анна Белл - успешная, богатая, но уже перегоревшая рок-певица. После расставания со своим бойфрендом она уезжает в загородный дом, вскоре она оказывается в паутине манипуляций и убийств. Страна: Великобритания Продолжительность: 01:30:23 Перевод: любительский (одноголосый закадровый) АСГ видеофильм Субтитры: нет Оригинальная аудиодорожка: английский Файл Качество: HDRip-AVC Видео: 768x576, 23.976 fps , AVC , 2 794 kb/s Звук: Аудио 1: AC3 , 48 kHz , 192.00 kbps avg , 2/0 (L,R) ch Аудио 2: AC3 , 48 kHz , 192.00 kbps avg , 2/0 (L,R) ch
[+] Скриншоты
[+] MediaInfoComplete name Истязание - Torment (1990).mkv Format : Matroska Format version : Version 4 File size : 2.01 GiB Duration : 1 h 30 min Overall bit rate : 3 180 kb/s Frame rate : 23.976 FPS Encoded date : 2024-07-07 17:54:07 UTC Writing application : mkvmerge v60.0.0 ('Are We Copies?') 64-bit Writing library : libebml v1.4.2 + libmatroska v1.6.4 Video ID : 1 Format : AVC Format/Info : Advanced Video Codec Format profile : High@L4.1 Format settings : CABAC / 16 Ref Frames Format settings, CABAC : Yes Format settings, Reference : 16 frames Codec ID : V_MPEG4/ISO/AVC Duration : 1 h 30 min Bit rate : 2 794 kb/s Width : 768 pixels Height : 576 pixels Display aspect ratio : 4:3 Frame rate mode : Constant Frame rate : 23.976 (24000/1001) FPS Color space : YUV Chroma subsampling : 4:2:0 Bit depth : 8 bits Scan type : Progressive Bits/(Pixel*Frame) : 0.263 Stream size : 1.76 GiB (88%) Writing library : x264 core 130 r2273 b3065e6 Encoding settings : cabac=1 / ref=16 / deblock=1:-3:-3 / analyse=0x3:0x133 / me=umh / subme=9 / psy=1 / psy_rd=1.00:0.00 / mixed_ref=1 / me_range=32 / chroma_me=1 / trellis=2 / 8x8dct=1 / cqm=0 / deadzone=21,11 / fast_pskip=1 / chroma_qp_offset=-2 / threads=6 / lookahead_threads=1 / sliced_threads=0 / nr=0 / decimate=1 / interlaced=0 / bluray_compat=0 / constrained_intra=0 / bframes=10 / b_pyramid=0 / b_adapt=2 / b_bias=0 / direct=3 / weightb=1 / open_gop=0 / weightp=2 / keyint=250 / keyint_min=23 / scenecut=40 / intra_refresh=0 / rc=crf / mbtree=0 / crf=21.0 / qcomp=0.60 / qpmin=0 / qpmax=69 / qpstep=4 / ip_ratio=1.40 / pb_ratio=1.30 / aq=1:1.00 Default : Yes Forced : No Audio #1 ID : 2 Format : AC-3 Format/Info : Audio Coding 3 Commercial name : Dolby Digital Codec ID : A_AC3 Duration : 1 h 30 min Bit rate mode : Constant Bit rate : 192 kb/s Channel(s) : 2 channels Channel layout : L R Sampling rate : 48.0 kHz Frame rate : 31.250 FPS (1536 SPF) Compression mode : Lossy Stream size : 124 MiB (6%) Language : Russian Service kind : Complete Main Default : Yes Forced : No Audio #2 ID : 3 Format : AC-3 Format/Info : Audio Coding 3 Commercial name : Dolby Digital Codec ID : A_AC3 Duration : 1 h 30 min Bit rate mode : Constant Bit rate : 192 kb/s Channel(s) : 2 channels Channel layout : L R Sampling rate : 48.0 kHz Frame rate : 31.250 FPS (1536 SPF) Compression mode : Lossy Stream size : 124 MiB (6%) Language : English Service kind : Complete Main Default : No Forced : No

Всего файлов в раздаче: 1 
Истязание - Torment (1990).mkv2.01 GB

Комментарии


Зарегистрируйтесь чтобы добавить комментарий
Торрент клиент
byTorrent - программа для загрузки торрент-файлов.

Скачать byTorrent.exe (1,5 МБ)

Скачать byTorrent.zip (0,6 МБ)

Поддержи torrent.by
российских рублей
(300 российских рублей это 4$)

Обратная связь rss

End game ©