↑↓torrent.by
Поиск
Логин:  Регистрация
Пароль:

Космический кадет / Space Cadet (2024) WEB-DL 1080p | HDRezka Studio

download Скачать торрент-файл   magnet Магнитная ссылка Размер: 6.21 GB Добавлен: 2024-07-08 17:00
Пиры будут получены из сети DHT
Последний сидер был замечен 2024-07-19 18:05
Информация о фильме Название: Space Cadet Оригинальное название: Space Cadet Год выхода: 2024 Жанр: Комедия Режиссер: Лиз В. Гарсиа В ролях: Эмма Робертс, Том Хоппер, Поппи Лю, Гэбриэл Юнион, Куху Верма, Дези Лайдик, Себастьян Ятра, Сэм Робардс, Дэйв Фоли, Яша Джексон О фильме: Рекс, тусовщица из Флориды, оказывается единственной надеждой для космической программы НАСА после того, как по счастливой случайности она проходит обучение с другими кандидатами, которые, возможно, имеют лучшие резюме, но не обладают ее умом, сердцем и смелостью. Страна: США Студия: Amazon Prime Video, Stampede Ventures Продолжительность: 01:50:47 Перевод: Профессиональный (многоголосый, закадровый) | HDRezka Studio Файл Формат: MKV Качество: WEB-DL 1080p Видео: MPEG-4 AVC, 1920x960 (2.000), 23.976 fps, ~7196 Kbps Аудио 1: Russian: АС3 Dolby Digital, 2.0 ch, 48.0 kHz, ~192 kbps Аудио 2: English: E-AC3 Dolby Digital, 6 ch, 48.0 kHz, ~640 kbps Субтитры: Русские (Forced), английские, французские и др.
[+] Скриншоты
[+] Инфо-файлGeneral Unique ID : 20536473934028857602340832115081264349 (0xF732E56AEAD46C7D96C2712EE3EBCDD) Complete name : Space.Cadet.2024.AMZN.WEB-DL.1080p.mkv Format : Matroska Format version : Version 4 File size : 6.21 GiB Duration : 1 h 50 min Overall bit rate : 8 031 kb/s Encoded date : UTC 2024-07-07 14:03:11 Writing application : mkvmerge v20.0.0 ('I Am The Sun') 64-bit Writing library : libebml v1.3.5 + libmatroska v1.4.8 Video ID : 1 Format : AVC Format/Info : Advanced Video Codec Format profile : High@L4 Format settings : CABAC / 4 Ref Frames Format settings, CABAC : Yes Format settings, Reference frames : 4 frames Codec ID : V_MPEG4/ISO/AVC Duration : 1 h 50 min Bit rate mode : Constant Bit rate : 7 196 kb/s Nominal bit rate : 10 000 kb/s Width : 1 920 pixels Height : 960 pixels Display aspect ratio : 2.000 Frame rate mode : Constant Frame rate : 23.976 (24000/1001) FPS Color space : YUV Chroma subsampling : 4:2:0 Bit depth : 8 bits Scan type : Progressive Bits/(Pixel*Frame) : 0.163 Stream size : 5.57 GiB (90%) Language : English Default : Yes Forced : No Color range : Limited Color primaries : BT.709 Transfer characteristics : BT.709 Matrix coefficients : BT.709 Audio #1 ID : 2 Format : AC-3 Format/Info : Audio Coding 3 Commercial name : Dolby Digital Codec ID : A_AC3 Duration : 1 h 50 min Bit rate mode : Constant Bit rate : 192 kb/s Channel(s) : 2 channels Channel layout : L R Sampling rate : 48.0 kHz Frame rate : 31.250 FPS (1536 SPF) Compression mode : Lossy Stream size : 152 MiB (2%) Title : MVO HDRezka Studio Language : Russian Service kind : Complete Main Default : Yes Forced : No Audio #2 ID : 3 Format : E-AC-3 Format/Info : Enhanced AC-3 Commercial name : Dolby Digital Plus Codec ID : A_EAC3 Duration : 1 h 50 min Bit rate mode : Constant Bit rate : 640 kb/s Channel(s) : 6 channels Channel layout : L R C LFE Ls Rs Sampling rate : 48.0 kHz Frame rate : 31.250 FPS (1536 SPF) Compression mode : Lossy Stream size : 507 MiB (8%) Language : English Service kind : Complete Main Default : No Forced : No Text #1 ID : 4 Format : UTF-8 Codec ID : S_TEXT/UTF8 Codec ID/Info : UTF-8 Plain Text Duration : 1 h 40 min Bit rate : 6 b/s Count of elements : 97 Stream size : 4.94 KiB (0%) Title : forced Language : Russian Default : Yes Forced : No Text #2 ID : 5 Format : UTF-8 Codec ID : S_TEXT/UTF8 Codec ID/Info : UTF-8 Plain Text Duration : 1 min 1 s Bit rate : 33 b/s Count of elements : 6 Stream size : 259 Bytes (0%) Title : forced Language : English Default : No Forced : No Text #3 ID : 6 Format : UTF-8 Codec ID : S_TEXT/UTF8 Codec ID/Info : UTF-8 Plain Text Duration : 1 h 40 min Bit rate : 75 b/s Count of elements : 1694 Stream size : 55.2 KiB (0%) Language : English Default : No Forced : No Text #4 ID : 7 Format : UTF-8 Codec ID : S_TEXT/UTF8 Codec ID/Info : UTF-8 Plain Text Duration : 1 h 48 min Bit rate : 62 b/s Count of elements : 1514 Stream size : 49.9 KiB (0%) Language : French Default : No Forced : No Text #5 ID : 8 Format : UTF-8 Codec ID : S_TEXT/UTF8 Codec ID/Info : UTF-8 Plain Text Duration : 1 h 48 min Bit rate : 64 b/s Count of elements : 1519 Stream size : 51.2 KiB (0%) Language : German Default : No Forced : No Text #6 ID : 9 Format : UTF-8 Codec ID : S_TEXT/UTF8 Codec ID/Info : UTF-8 Plain Text Duration : 1 h 48 min Bit rate : 63 b/s Count of elements : 1525 Stream size : 50.9 KiB (0%) Language : Spanish Default : No Forced : No Text #7 ID : 10 Format : UTF-8 Codec ID : S_TEXT/UTF8 Codec ID/Info : UTF-8 Plain Text Duration : 1 h 48 min Bit rate : 58 b/s Count of elements : 1511 Stream size : 46.5 KiB (0%) Language : Finnish Default : No Forced : No Text #8 ID : 11 Format : UTF-8 Codec ID : S_TEXT/UTF8 Codec ID/Info : UTF-8 Plain Text Duration : 1 h 48 min Bit rate : 64 b/s Count of elements : 1524 Stream size : 51.1 KiB (0%) Language : Swedish Default : No Forced : No Text #9 ID : 12 Format : UTF-8 Codec ID : S_TEXT/UTF8 Codec ID/Info : UTF-8 Plain Text Duration : 1 h 48 min Bit rate : 60 b/s Count of elements : 1485 Stream size : 48.0 KiB (0%) Language : Danish Default : No Forced : No Text #10 ID : 13 Format : UTF-8 Codec ID : S_TEXT/UTF8 Codec ID/Info : UTF-8 Plain Text Duration : 1 h 48 min Bit rate : 60 b/s Count of elements : 1522 Stream size : 48.2 KiB (0%) Language : Norwegian Default : No Forced : No Text #11 ID : 14 Format : UTF-8 Codec ID : S_TEXT/UTF8 Codec ID/Info : UTF-8 Plain Text Duration : 1 h 48 min Bit rate : 58 b/s Count of elements : 1535 Stream size : 46.3 KiB (0%) Language : Chinese Default : No Forced : No Text #12 ID : 15 Format : UTF-8 Codec ID : S_TEXT/UTF8 Codec ID/Info : UTF-8 Plain Text Duration : 1 h 48 min Bit rate : 73 b/s Count of elements : 1533 Stream size : 58.3 KiB (0%) Language : Korean Default : No Forced : No Menu 00:00:00.000 : en:Studio Logo 00:00:38.000 : en:Scene 1 00:02:07.000 : en:Scene 2 00:03:10.000 : en:Title Sequence 00:03:14.000 : en:Scene 3 00:05:45.000 : en:Scene 4 00:06:53.000 : en:Scene 5 00:08:26.000 : en:Scene 6 00:10:05.000 : en:Scene 7 00:13:38.000 : en:Scene 8 00:14:49.000 : en:Scene 9 00:15:46.000 : en:Scene 10 00:18:00.000 : en:Scene 11 00:19:37.000 : en:Scene 12 00:21:09.000 : en:Scene 13 00:21:59.000 : en:Scene 14 00:23:04.000 : en:Scene 15 00:24:24.000 : en:Scene 16 00:27:33.000 : en:Scene 17 00:28:22.000 : en:Scene 18 00:31:36.000 : en:Scene 19 00:32:56.000 : en:Scene 20 00:33:41.000 : en:Scene 21 00:34:18.000 : en:Scene 22 00:34:46.000 : en:Scene 23 00:37:25.000 : en:Scene 24 00:40:52.000 : en:Scene 25 00:42:31.000 : en:Scene 26 00:45:38.000 : en:Scene 27 00:46:55.000 : en:Scene 28 00:49:07.000 : en:Scene 29 00:49:50.000 : en:Scene 30 00:50:44.000 : en:Scene 31 00:52:32.000 : en:Scene 32 00:53:41.000 : en:Scene 33 00:53:59.000 : en:Scene 34 00:54:35.000 : en:Scene 35 00:55:41.000 : en:Scene 36 00:58:19.000 : en:Scene 37 00:59:04.000 : en:Scene 38 00:59:58.000 : en:Scene 39 01:03:31.000 : en:Scene 40 01:05:20.000 : en:Scene 41 01:07:30.000 : en:Scene 42 01:10:07.000 : en:Scene 43 01:10:51.000 : en:Scene 44 01:11:43.000 : en:Scene 45 01:13:05.000 : en:Scene 46 01:14:07.000 : en:Scene 47 01:16:42.000 : en:Scene 48 01:17:59.000 : en:Scene 49 01:18:45.000 : en:Scene 50 01:19:20.000 : en:Scene 51 01:21:19.000 : en:Scene 52 01:22:46.000 : en:Scene 53 01:25:25.000 : en:Scene 54 01:26:10.000 : en:Scene 55 01:29:00.000 : en:Scene 56 01:30:08.000 : en:Scene 57 01:30:44.000 : en:Scene 58 01:31:46.000 : en:Scene 59 01:32:26.000 : en:Scene 60 01:33:19.000 : en:Scene 61 01:34:13.000 : en:Scene 62 01:34:46.000 : en:Scene 63 01:35:32.000 : en:Scene 64 01:36:12.000 : en:Scene 65 01:36:55.000 : en:Scene 66 01:37:26.000 : en:Scene 67 01:38:27.000 : en:Scene 68 01:39:08.000 : en:Scene 69 01:39:54.000 : en:Scene 70 01:41:16.000 : en:End Credits

Всего файлов в раздаче: 1 
Space.Cadet.2024.AMZN.WEB-DL.1080p.mkv6.21 GB

Комментарии


Зарегистрируйтесь чтобы добавить комментарий
Торрент клиент
byTorrent - программа для загрузки торрент-файлов.

Скачать byTorrent.exe (1,5 МБ)

Скачать byTorrent.zip (0,6 МБ)

Поддержи torrent.by
российских рублей
(300 российских рублей это 4$)

Обратная связь rss

End game ©