↑↓torrent.by
Поиск
Логин:  Регистрация
Пароль:

Поддержка / Бэкспот / Backspot (2023) WEBRip-AVC | L | RGB

download Скачать торрент-файл   magnet Магнитная ссылка Размер: 1.48 GB Раздают: 1 Качают: 0 Добавлен: il68k 2024-07-08 20:24
Пиры будут получены из сети DHT
Последний сидер был замечен сегодня в 03:30
Информация о фильме Название: Поддержка / Бэкспот Оригинальное название: Backspot Год выхода: 2023 Жанр: драма Режиссер: Д.В. Уотерсон В ролях: Девери Джейкобс, Эван Рэйчел Вуд, Шаннин Соссамон, Венди Крюсон, Томас Энтони Оладжиде, Ноа ДиБерто, Олунике Аделийи, Эммерли Тинглин, Адрианна Ди Лиелло О фильме: Райли крайне амбициозна, но не уверена в своих силах. Для Райли становится шоком, когда она проходит отбор в профессиональную команду поддержки «Тандерхоукс», которую возглавляет требовательная Эйлин Макнамара. В преддверии важного соревнования главная героиня проходит через суровые тренировки и сильный стресс, из-за чего рискует окончательно потерять контроль над собой и тем самым подвести команду. Страна: Канада, США Студия: Crave, Night Is Y, Ontario Creates, Pageboy Productions Продолжительность: 01:32:26 Перевод: Любительский (многоголосый закадровый) | RGB Файл Формат: MKV Качество: WEBRip-AVC Видео: AVC/H.264, 720x358, ~2099 Kbps, 23.976 fps Аудио: AC3, 48 kHz, 2 ch, 192 Kbps - Русский Субтитры: отсутствуют Семпл
[+] Скриншоты
[+] MediaInfo General Unique ID : 38330126908610603696039032961809001664 (0x1CD61D29C40BCEE5FBD8EC981BE82CC0) Complete name : E:\RGB\Backspot.2024.WEB.MVO-RGB.mkv Format : Matroska Format version : Version 4 File size : 1.48 GiB Duration : 1 h 32 min Overall bit rate : 2 293 kb/s Frame rate : 23.976 FPS Movie name : RGB Encoded date : 2024-06-19 18:01:39 UTC Writing application : mkvmerge v82.0 ('I'm The President') 64-bit Writing library : libebml v1.4.5 + libmatroska v1.7.1 Video ID : 1 Format : AVC Format/Info : Advanced Video Codec Format profile : High@L4.1 Format settings : CABAC / 10 Ref Frames Format settings, CABAC : Yes Format settings, Reference : 10 frames Codec ID : V_MPEG4/ISO/AVC Duration : 1 h 32 min Bit rate : 2 099 kb/s Width : 720 pixels Height : 358 pixels Display aspect ratio : 2.011 Frame rate mode : Constant Frame rate : 23.976 (24000/1001) FPS Color space : YUV Chroma subsampling : 4:2:0 Bit depth : 8 bits Scan type : Progressive Bits/(Pixel*Frame) : 0.340 Stream size : 1.36 GiB (92%) Title : RGB Language : English Default : Yes Forced : No Audio ID : 2 Format : AC-3 Format/Info : Audio Coding 3 Commercial name : Dolby Digital Codec ID : A_AC3 Duration : 1 h 32 min Bit rate mode : Constant Bit rate : 192 kb/s Channel(s) : 2 channels Channel layout : L R Sampling rate : 48.0 kHz Frame rate : 31.250 FPS (1536 SPF) Compression mode : Lossy Stream size : 127 MiB (8%) Title : MVO Language : Russian Service kind : Complete Main Default : Yes Forced : No
Релиз от: RGB

Всего файлов в раздаче: 1 
Backspot.2024.WEB.MVO-RGB.mkv1.48 GB

Похожие раздачи по запросу - Поддержка
2024-07-08 magnet Поддержка / Бэкспот / Backspot (2023) WEBRip 1080p | L | RGB 4.64 GB ↑ 1 ↓ 0

Комментарии


Зарегистрируйтесь чтобы добавить комментарий
Торрент клиент
byTorrent - программа для загрузки торрент-файлов.

Скачать byTorrent.exe (1,5 МБ)

Скачать byTorrent.zip (0,6 МБ)

Поддержи torrent.by
российских рублей
(300 российских рублей это 4$)

Обратная связь rss

End game ©