↑↓torrent.by
Поиск
Логин:  Регистрация
Пароль:

Трудные мили / Hard Miles (2023) WEB-DL 1080p | L | RGB

download Скачать торрент-файл   magnet Магнитная ссылка Размер: 5.60 GB Раздают: 1 Качают: 0 Добавлен: il68k 2024-07-08 21:23
Пиры будут получены из сети DHT
Последний сидер был замечен сегодня в 19:16
Информация о фильме Название: Трудные мили Оригинальное название: Hard Miles Год выхода: 2023 Жанр: драма, спорт, биография Режиссер: Р.Дж. Дэниэл Ханна В ролях: Мэттью Модайн, Шон Эстин, Лесли Дэвид Бэйкер, Джексон Келли, Джакинг Гиллори, Синтия Кэй МакУильямс, Эмили Хьюз, Дэмиен Диас, Джуда Маккей, Захари Т. Роббинс О фильме: Волевой социальный работник в колонии для несовершеннолетних собирает команду велосипедистов из молодых заключенных и отправляет их в преображающее путешествие длиной в 1000 миль. Вдохновленный жизнью Грега Таунсенда и команды велосипедистов Академии Риджвью. Это история о том, как эти трудные молодые люди нашли себе другое занятие. Страна: США Студия: Pense Productions Продолжительность: 01:48:58 Перевод: Любительский (многоголосый закадровый) | RGB Файл Формат: MKV Качество: WEB-DL 1080p Видео: AVC/H.264, 1912x792, ~6584 Kbps, 23.976 fps Аудио 1: AC3, 48 kHz, 6 ch, 384 Kbps - Русский Аудио 2: AC3, 48 kHz, 6 ch, 384 Kbps - Английский Субтитры: отсутствуют Семпл
[+] Скриншоты
[+] MediaInfo General Unique ID : 31189891455182153489350488097954499349 (0x1776F4601D000477531D2C4DCA388B15) Complete name : E:\RGB\Hard.Miles.2023.1080p.WEB.MVO-RGB.mkv Format : Matroska Format version : Version 4 File size : 5.60 GiB Duration : 1 h 49 min Overall bit rate : 7 351 kb/s Frame rate : 23.976 FPS Movie name : RGB Encoded date : 2024-06-26 21:22:26 UTC Writing application : mkvmerge v82.0 ('I'm The President') 64-bit Writing library : libebml v1.4.5 + libmatroska v1.7.1 Video ID : 1 Format : AVC Format/Info : Advanced Video Codec Format profile : High@L4 Format settings : CABAC / 5 Ref Frames Format settings, CABAC : Yes Format settings, Reference : 5 frames Format settings, Slice coun : 8 slices per frame Codec ID : V_MPEG4/ISO/AVC Duration : 1 h 48 min Bit rate : 6 584 kb/s Width : 1 912 pixels Height : 792 pixels Display aspect ratio : 2.40:1 Frame rate mode : Constant Frame rate : 23.976 (24000/1001) FPS Color space : YUV Chroma subsampling : 4:2:0 Bit depth : 8 bits Scan type : Progressive Bits/(Pixel*Frame) : 0.181 Stream size : 5.01 GiB (90%) Title : RGB Language : English Default : Yes Forced : No Color range : Limited Color primaries : BT.709 Transfer characteristics : BT.709 Matrix coefficients : BT.709 Audio #1 ID : 2 Format : AC-3 Format/Info : Audio Coding 3 Commercial name : Dolby Digital Codec ID : A_AC3 Duration : 1 h 49 min Bit rate mode : Constant Bit rate : 384 kb/s Channel(s) : 6 channels Channel layout : L R C LFE Ls Rs Sampling rate : 48.0 kHz Frame rate : 31.250 FPS (1536 SPF) Compression mode : Lossy Stream size : 299 MiB (5%) Title : MVO Language : Russian Service kind : Complete Main Default : Yes Forced : No Dialog Normalization : -27 dB compr : -0.28 dB cmixlev : -3.0 dB surmixlev : -3 dB mixlevel : 285 dB roomtyp : 3 ltrtcmixlev : -3.0 dB ltrtsurmixlev : -3.0 dB lorocmixlev : -3.0 dB lorosurmixlev : -3.0 dB dialnorm_Average : -27 dB dialnorm_Minimum : -27 dB dialnorm_Maximum : -27 dB Audio #2 ID : 3 Format : AC-3 Format/Info : Audio Coding 3 Commercial name : Dolby Digital Codec ID : A_AC3 Duration : 1 h 48 min Bit rate mode : Constant Bit rate : 384 kb/s Channel(s) : 6 channels Channel layout : L R C LFE Ls Rs Sampling rate : 48.0 kHz Frame rate : 31.250 FPS (1536 SPF) Compression mode : Lossy Stream size : 299 MiB (5%) Title : Original Language : English Service kind : Complete Main Default : No Forced : No Dialog Normalization : -30 dB compr : -0.28 dB cmixlev : -3.0 dB surmixlev : -3 dB ltrtcmixlev : -3.0 dB ltrtsurmixlev : -3.0 dB lorocmixlev : -3.0 dB lorosurmixlev : -3.0 dB dialnorm_Average : -30 dB dialnorm_Minimum : -30 dB dialnorm_Maximum : -30 dB
Релиз от: RGB

Всего файлов в раздаче: 1 
Hard.Miles.2023.1080p.WEB.MVO-RGB.mkv5.60 GB

Похожие раздачи по запросу - Трудные
2024-06-28 magnet Трудные мили / Hard Miles (2023) WEB-DLRip-AVC | L 2.14 GB ↑ 3 ↓ 0
2024-01-26 magnet Трудные подростки [05х01-07 из 12] (2023) WEBRip-AVC от Files-х 2.21 GB ↑ 1 ↓ 0

Комментарии


Зарегистрируйтесь чтобы добавить комментарий
Торрент клиент
byTorrent - программа для загрузки торрент-файлов.

Скачать byTorrent.exe (1,5 МБ)

Скачать byTorrent.zip (0,6 МБ)

Поддержи torrent.by
российских рублей
(300 российских рублей это 4$)

Обратная связь rss

End game ©