↑↓torrent.by
Поиск
Логин:  Регистрация
Пароль:

Интакто / Intacto (2001) WEB-DLRip 720p от DoMiNo & селезень | D, P

download Скачать торрент-файл   magnet Магнитная ссылка Размер: 2.91 GB Добавлен: 2024-07-09 05:00
Пиры будут получены из сети DHT
Последний сидер был замечен 2024-07-11 17:39
Информация о фильме Название: Интакто Оригинальное название: Intacto Год выхода: 2001 Жанр: Боевик, триллер, фэнтези, драма, мелодрама, приключения Режиссер: Хуан Карлос Фреснадильо В ролях: Леонардо Сбаралья, Эусебио Понсела, Моника Лопес, Антонио Дечент, Макс фон Сюдов, Гильермо Толедо, Альбер Понте, Андреа Сан Висенте, Хесус Ногуэро, Рамон Серрада, Мариса Лулл, Луис Месонеро, Педро Беития, Джейм Лосада, Сюзанна Лазаро О фильме: Сэм - владелец казино и проводит дни, испытывая судьбу. Томас - начинающий вор, который узнал, что такое везение, оказавшись единственным спасшимся в авиакатастрофе. Федерико пережил страшное землетрясение и обнаружил у себя способность таинственным образом похищать у людей удачу. Федерико и Томас отправляются в путешествие, которое становится началом серии испытаний на выживание. Им выпал шанс встретиться с Сэмом. И только один останется в живых. Страна: Испания Студия: Canal+ España, Gestevisión Telecinco S.A., Telecinco Продолжительность: 01:44:03 Перевод: Дублированный, профессиональный многоголосый Субтитры: Русские (Full), английские, испанские (Forced -hardsub) Файл Формат: Matroska Качество: WEB-DLRip 720p Видео: 1280x544 at 25.000 fps, x264@L4.1, ~3121 kbps Аудио 1: AC3, 6 ch, ~448 kbps - | Русский | | DUB, R5 Аудио 2: AC3, 2 ch, ~192 kbps - | Русский | | MVO Аудио 3: AC3, 6 ch, ~256 kbps - | Испанский | | Original Формат субтитров: softsub (SRT) ***Рип от: -=DoMiNo=- *** Дебандинг, зерно.
[+] M/IGeneral Unique ID : 38125220033142589039775352885878589037 (0x1CAEA67964BDD94FCFB8FA3166BA066D) Complete name : K:Intacto.2001.WEB-DLRip.720p.x264.seleZen.mkv Format : Matroska Format version : Version 4 File size : 2.91 GiB Duration : 1 h 44 min Overall bit rate : 3 995 kb/s Frame rate : 25.000 FPS Movie name : Intacto.2001.WEB-DLRip.720p.x264.seleZen Encoded date : 2024-07-08 18:45:59 UTC Writing application : mkvmerge v85.0 ('Shame For You') 64-bit Writing library : libebml v1.4.5 + libmatroska v1.7.1 Cover : Yes Attachments : cover.jpg / small_cover.jpg Video ID : 1 Format : AVC Format/Info : Advanced Video Codec Format profile : High@L4.1 Format settings : CABAC / 9 Ref Frames Format settings, CABAC : Yes Format settings, Reference : 9 frames Codec ID : V_MPEG4/ISO/AVC Duration : 1 h 44 min Bit rate : 3 103 kb/s Width : 1 280 pixels Height : 544 pixels Display aspect ratio : 2.35:1 Frame rate mode : Constant Frame rate : 25.000 FPS Color space : YUV Chroma subsampling : 4:2:0 Bit depth : 8 bits Scan type : Progressive Bits/(Pixel*Frame) : 0.178 Stream size : 2.26 GiB (78%) Title : -=DoMiNo=- Writing library : x264 core 164 r3191 -DoMiNo Encoding settings : cabac=1 / ref=9 / deblock=1:-3:-2 / analyse=0x3:0x133 / me=umh / subme=10 / psy=1 / psy_rd=1.00:0.15 / mixed_ref=1 / me_range=32 / chroma_me=1 / trellis=2 / 8x8dct=1 / cqm=0 / deadzone=21,11 / fast_pskip=0 / chroma_qp_offset=-3 / threads=17 / lookahead_threads=4 / sliced_threads=0 / nr=0 / decimate=1 / interlaced=0 / bluray_compat=0 / constrained_intra=0 / bframes=12 / b_pyramid=2 / b_adapt=2 / b_bias=0 / direct=3 / weightb=1 / open_gop=0 / weightp=2 / keyint=240 / keyint_min=24 / scenecut=40 / intra_refresh=0 / rc_lookahead=60 / rc=crf / mbtree=0 / crf=20.0 / qcomp=0.60 / qpmin=0 / qpmax=69 / qpstep=4 / vbv_maxrate=50000 / vbv_bufsize=62500 / crf_max=0.0 / nal_hrd=none / filler=0 / ip_ratio=1.40 / pb_ratio=1.30 / aq=1:0.90 Language : English Default : Yes Forced : No Color range : Limited Color primaries : BT.709 Transfer characteristics : BT.709 Matrix coefficients : BT.709 Audio #1 ID : 2 Format : AC-3 Format/Info : Audio Coding 3 Commercial name : Dolby Digital Codec ID : A_AC3 Duration : 1 h 44 min Bit rate mode : Constant Bit rate : 448 kb/s Channel(s) : 6 channels Channel layout : L R C LFE Ls Rs Sampling rate : 48.0 kHz Frame rate : 31.250 FPS (1536 SPF) Compression mode : Lossy Stream size : 334 MiB (11%) Title : DUB (R5) Language : Russian Service kind : Complete Main Default : Yes Forced : No Dialog Normalization : -27 dB compr : -0.28 dB cmixlev : -3.0 dB surmixlev : -3 dB dialnorm_Average : -27 dB dialnorm_Minimum : -27 dB dialnorm_Maximum : -27 dB Audio #2 ID : 3 Format : AC-3 Format/Info : Audio Coding 3 Commercial name : Dolby Digital Codec ID : A_AC3 Duration : 1 h 44 min Bit rate mode : Constant Bit rate : 192 kb/s Channel(s) : 2 channels Channel layout : L R Sampling rate : 48.0 kHz Frame rate : 31.250 FPS (1536 SPF) Compression mode : Lossy Stream size : 143 MiB (5%) Title : MVO Language : Russian Service kind : Complete Main Default : No Forced : No Dialog Normalization : -27 dB compr : -0.28 dB dialnorm_Average : -27 dB dialnorm_Minimum : -27 dB dialnorm_Maximum : -27 dB Audio #3 ID : 4 Format : AC-3 Format/Info : Audio Coding 3 Commercial name : Dolby Digital Codec ID : A_AC3 Duration : 1 h 44 min Bit rate mode : Constant Bit rate : 256 kb/s Channel(s) : 6 channels Channel layout : L R C LFE Ls Rs Sampling rate : 48.0 kHz Frame rate : 31.250 FPS (1536 SPF) Compression mode : Lossy Stream size : 191 MiB (6%) Title : Original Language : Spanish Service kind : Complete Main Default : No Forced : No Dialog Normalization : -31 dB cmixlev : -4.5 dB surmixlev : -6 dB dialnorm_Average : -31 dB dialnorm_Minimum : -31 dB dialnorm_Maximum : -31 dB Text #1 ID : 5 Format : UTF-8 Codec ID : S_TEXT/UTF8 Codec ID/Info : UTF-8 Plain Text Duration : 1 h 40 min Bit rate : 41 b/s Frame rate : 0.103 FPS Count of elements : 621 Stream size : 30.4 KiB (0%) Title : Full Language : Russian Default : No Forced : No Text #2 ID : 6 Format : UTF-8 Codec ID : S_TEXT/UTF8 Codec ID/Info : UTF-8 Plain Text Duration : 1 h 40 min Bit rate : 23 b/s Frame rate : 0.103 FPS Count of elements : 618 Stream size : 17.4 KiB (0%) Title : Full Language : English Default : No Forced : No Menu 00:00:00.000 : en:Chapter 01 00:12:55.280 : en:Chapter 02 00:15:20.240 : en:Chapter 03 00:18:50.000 : en:Chapter 04 00:24:39.920 : en:Chapter 05 00:33:11.120 : en:Chapter 06 00:39:23.984 : en:Chapter 07 00:45:47.984 : en:Chapter 08 00:47:47.984 : en:Chapter 09 01:02:42.224 : en:Chapter 10 01:10:32.144 : en:Chapter 11 01:14:32.144 : en:Chapter 12 01:20:49.904 : en:Chapter 13 01:27:46.064 : en:Chapter 14 01:39:01.904 : en:Chapter 15 01:40:35.984 : en:Chapter 16
Релиз: Присоединяйся к: Кликай на баннеры.

Всего файлов в раздаче: 1 
Intacto.2001.WEB-DLRip.720p.x264.seleZen.mkv2.91 GB

Похожие раздачи по запросу - Интакто
2024-07-08 magnet Интакто / Intacto (2001) WEB-DL 1080p | D, P 7.79 GB ↑ 0 ↓ 0

Комментарии


Зарегистрируйтесь чтобы добавить комментарий
Торрент клиент
byTorrent - программа для загрузки торрент-файлов.

Скачать byTorrent.exe (1,5 МБ)

Скачать byTorrent.zip (0,6 МБ)

Поддержи torrent.by
российских рублей
(300 российских рублей это 4$)

Обратная связь rss

End game ©