↑↓torrent.by
Поиск
Логин:  Регистрация
Пароль:

Джулс / Jules (2023) BDRip от DoMiNo & селезень | D, P | Мосфильм-Мастер, TVShows

download Скачать торрент-файл   magnet Магнитная ссылка Размер: 1.46 GB Добавлен: 2024-07-09 05:00
Пиры будут получены из сети DHT
Последний сидер был замечен 2024-07-20 20:53
Информация о фильме Название: Джулс Оригинальное название: Jules Год выпуска: 2023 Жанр: фантастика, драма, комедия Режиссер: Марк Тёртлтауб Продюсер: Дэвид Бауш, Майкл Б. Кларк, Эндрю Дэйли Актеры: Бен Кингсли, Харриет Сэнсом Харрис, Джейн Кёртин, Тедди Каньес, Нареа Кан, Эдвард Джеймс Хайланд, Блэр Бэйкер, Джошуа Арден, Джон Скелли, Кристофер Кин Келли Описание: Милтон живет тихой жизнью в маленьком городке на западе Пенсильвании. Но однажды на его заднем дворе приземляется НЛО… с пришельцем внутри. Между Милтоном и инопланетянином завязывается дружба, но все становится сложно, когда об этой удивительной истории узнают сначала соседи, а затем и правительство… Производство: США / Big Beach Films Продолжительность: 01:27:22 Перевод 1: Дублированный | Мосфильм-Мастер Перевод 2: Профессиональный (многоголосый, закадровый) | TVShows Субтитры: Русские (Forced - хардсаб) Файл Формат: AVI Качество: BDRip Исходник: Jules.2023.REMUX Видео: 704x352 at 23.976 fps, XviD 69, ~1613 kbps Аудио 1: AC3, 6 ch, ~384 kbps - | Русский | | Мосфильм-Мастер Аудио 2: AC3, 6 ch, ~384 kbps - | Русский | | TVShows Формат субтитров: хардсаб ***Рип от: -=DoMiNo=-
[+] M/IGeneral Complete name : U:Jules.2023.BDRip.seleZen.avi Format : AVI Format/Info : Audio Video Interleave Format settings : BitmapInfoHeader / WaveFormatEx File size : 1.46 GiB Duration : 1 h 27 min Overall bit rate : 2 395 kb/s Frame rate : 23.976 FPS Movie name : Jules.2023.BDRip.seleZen Writing application : VirtualDubModRus 1.5.10.2 (build 2542/release) Writing library : VirtualDubMod build 2542/release Copyright : -=DoMiNo=- Video ID : 0 Format : MPEG-4 Visual Format profile : Advanced Simple@L5 Format settings : BVOP1 / Custom Matrix Format settings, BVOP : 1 Format settings, QPel : No Format settings, GMC : No warppoints Format settings, Matrix : Custom Codec ID : XVID Codec ID/Hint : XviD Duration : 1 h 27 min Bit rate : 1 613 kb/s Width : 704 pixels Height : 352 pixels Display aspect ratio : 2.000 Frame rate : 23.976 (24000/1001) FPS Color space : YUV Chroma subsampling : 4:2:0 Bit depth : 8 bits Scan type : Progressive Compression mode : Lossy Bits/(Pixel*Frame) : 0.271 Stream size : 1 008 MiB (67%) Writing library : XviD 69 Audio #1 ID : 1 Format : AC-3 Format/Info : Audio Coding 3 Commercial name : Dolby Digital Codec ID : 2000 Duration : 1 h 27 min Bit rate mode : Constant Bit rate : 384 kb/s Channel(s) : 6 channels Channel layout : L R C LFE Ls Rs Sampling rate : 48.0 kHz Frame rate : 31.250 FPS (1536 SPF) Compression mode : Lossy Stream size : 240 MiB (16%) Alignment : Split across interleaves Interleave, duration : 42 ms (1.00 video frame) Interleave, preload duratio : 500 ms Service kind : Complete Main Dialog Normalization : -24 dB compr : -0.28 dB cmixlev : -3.0 dB surmixlev : -3 dB mixlevel : 285 dB roomtyp : 3 ltrtcmixlev : -3.0 dB ltrtsurmixlev : -3.0 dB lorocmixlev : -3.0 dB lorosurmixlev : -4.5 dB dialnorm_Average : -24 dB dialnorm_Minimum : -24 dB dialnorm_Maximum : -24 dB Audio #2 ID : 2 Format : AC-3 Format/Info : Audio Coding 3 Commercial name : Dolby Digital Codec ID : 2000 Duration : 1 h 27 min Bit rate mode : Constant Bit rate : 384 kb/s Channel(s) : 6 channels Channel layout : L R C LFE Ls Rs Sampling rate : 48.0 kHz Frame rate : 31.250 FPS (1536 SPF) Compression mode : Lossy Stream size : 240 MiB (16%) Alignment : Split across interleaves Interleave, duration : 42 ms (1.00 video frame) Interleave, preload duratio : 500 ms Service kind : Complete Main Dialog Normalization : -31 dB cmixlev : -4.5 dB surmixlev : -6 dB dialnorm_Average : -31 dB dialnorm_Minimum : -31 dB dialnorm_Maximum : -31 dB
Релиз: Присоединяйся к: Кликай на баннеры.

Всего файлов в раздаче: 1 
Jules.2023.BDRip.seleZen.avi1.46 GB

Похожие раздачи по запросу - Джулс
2024-07-13 magnet Джулс / Jules (2023) BDRip 1080p от Generalfilm | D 4.39 GB ↑ 0 ↓ 0
2024-07-09 magnet Джулс / Jules (2023) BDRemux 1080p | D, P 18.17 GB ↑ 0 ↓ 0
2024-07-09 magnet Джулс / Jules (2023) BDRip от New-Team | D 1.46 GB ↑ 0 ↓ 0
2024-07-09 magnet Джулс / Jules (2023) BDRip 720p от DoMiNo & селезень | D, P | Мосфильм-Мастер, TVShows 2.97 GB ↑ 0 ↓ 0
2023-09-29 magnet Джулс / Jules (2023) WEB-DLRip от toxics | D 743.70 MB ↑ 0 ↓ 0
2023-09-28 magnet Джулс / Jules (2023) WEB-DLRip-AVC от DoMiNo & селезень | P | TVShows 1.46 GB ↑ 1 ↓ 0

Комментарии


Зарегистрируйтесь чтобы добавить комментарий
Торрент клиент
byTorrent - программа для загрузки торрент-файлов.

Скачать byTorrent.exe (1,5 МБ)

Скачать byTorrent.zip (0,6 МБ)

Поддержи torrent.by
российских рублей
(300 российских рублей это 4$)

Обратная связь rss

End game ©