↑↓torrent.by
Поиск
Логин:  Регистрация
Пароль:

Джулс / Jules (2023) BDRemux 1080p | D, P

download Скачать торрент-файл   magnet Магнитная ссылка Размер: 18.17 GB Раздают: 0 Качают: 3 Добавлен: 2024-07-09 05:00
Пиры будут получены из сети DHT
Последний сидер был замечен 2024-07-11 22:22
Информация о фильме Название: Джулс Оригинальное название: Jules Год выхода: 2023 Жанр: Фантастика, драма, комедия Режиссер: Марк Тёртлтауб Продюсер: Дэвид Бауш, Майкл Б. Кларк, Эндрю Дэйли В ролях: Бен Кингсли, Харриет Сэнсом Харрис, Джейн Кертин, Тедди Каньес, Нареа Кан, Эдвард Джеймс Хайланд, Блэр Бэйкер, Джошуа Арден, Джон Скелли, Кристофер Кин Келли, Зои Уинтерс, Джейд Квон, Оби Меррилиз, Эндрю Дэйли, Эрик Миллер О фильме: Милтон живет тихой жизнью в маленьком городке на западе Пенсильвании. Но однажды на его заднем дворе приземляется НЛО… с пришельцем внутри. Между Милтоном и инопланетянином завязывается дружба, но все становится сложно, когда об этой удивительной истории узнают сначала соседи, а затем и правительство. Страна: США Студия: Big Beach Films Продолжительность: 01:27:22 Перевод 1: Профессиональный (дублированный) | Мосфильм-Мастер Перевод 2: Профессиональный (многоголосый, закадровый) | TVShows Файл Формат: MKV Качество: BDRemux 1080p Видео: MPEG-4 AVC, 1920x1080 (16:9), 23.976 fps, 25.9 Mbps Аудио 1: E-AC3 Dolby Digital, 5.1 ch, 48.0 kHz, 384 kbps | DUB, Мосфильм-Мастер Аудио 2: AC3 Dolby Digital, 5.1 ch, 48.0 kHz, 384 kbps | MVO, TVShows Аудио 3: DTS-HD MA Audio, 5.1 ch, 48.0 kHz, 3149 kbps | Original Субтитры: Русские (Forced, Full), английские, французские и др. Релиз: mike7025
[+] Скриншоты
[+] Инфо-файлGeneral Unique ID : 261236876885701089196956587908581118346 (0xC4886472D5AA1A8737F97653EA99518A) Complete name : Jules.2023.REMUX.mkv Format : Matroska Format version : Version 4 File size : 18.2 GiB Duration : 1 h 27 min Overall bit rate mode : Variable Overall bit rate : 29.8 Mb/s Encoded date : UTC 2024-07-08 02:35:09 Writing application : mkvmerge v20.0.0 ('I Am The Sun') 64-bit Writing library : libebml v1.3.5 + libmatroska v1.4.8 Video ID : 1 Format : AVC Format/Info : Advanced Video Codec Format profile : High@L4.1 Format settings : CABAC / 4 Ref Frames Format settings, CABAC : Yes Format settings, Reference frames : 4 frames Format settings, GOP : M=3, N=12 Codec ID : V_MPEG4/ISO/AVC Duration : 1 h 27 min Bit rate mode : Variable Bit rate : 25.9 Mb/s Maximum bit rate : 36.0 Mb/s Width : 1 920 pixels Height : 1 080 pixels Display aspect ratio : 16:9 Frame rate mode : Constant Frame rate : 23.976 (24000/1001) FPS Color space : YUV Chroma subsampling : 4:2:0 Bit depth : 8 bits Scan type : Progressive Bits/(Pixel*Frame) : 0.520 Stream size : 15.8 GiB (87%) Language : English Default : Yes Forced : No Audio #1 ID : 2 Format : E-AC-3 Format/Info : Enhanced AC-3 Commercial name : Dolby Digital Plus Codec ID : A_EAC3 Duration : 1 h 27 min Bit rate mode : Constant Bit rate : 384 kb/s Channel(s) : 6 channels Channel layout : L R C LFE Ls Rs Sampling rate : 48.0 kHz Frame rate : 31.250 FPS (1536 SPF) Compression mode : Lossy Stream size : 240 MiB (1%) Title : Dub Мосфильм-Мастер, OKKO Language : Russian Service kind : Complete Main Default : Yes Forced : No Audio #2 ID : 3 Format : AC-3 Format/Info : Audio Coding 3 Commercial name : Dolby Digital Codec ID : A_AC3 Duration : 1 h 27 min Bit rate mode : Constant Bit rate : 384 kb/s Channel(s) : 6 channels Channel layout : L R C LFE Ls Rs Sampling rate : 48.0 kHz Frame rate : 31.250 FPS (1536 SPF) Compression mode : Lossy Stream size : 240 MiB (1%) Title : MVO TVShows Language : Russian Service kind : Complete Main Default : No Forced : No Audio #3 ID : 4 Format : DTS XLL Format/Info : Digital Theater Systems Commercial name : DTS-HD Master Audio Codec ID : A_DTS Duration : 1 h 27 min Bit rate mode : Variable Bit rate : 3 149 kb/s Channel(s) : 6 channels Channel layout : C L R Ls Rs LFE Sampling rate : 48.0 kHz Frame rate : 93.750 FPS (512 SPF) Bit depth : 24 bits Compression mode : Lossless Stream size : 1.92 GiB (11%) Language : English Default : No Forced : No Text #1 ID : 5 Format : UTF-8 Codec ID : S_TEXT/UTF8 Codec ID/Info : UTF-8 Plain Text Duration : 9 min 38 s Bit rate : 12 b/s Count of elements : 12 Stream size : 869 Bytes (0%) Title : forced Language : Russian Default : Yes Forced : No Text #2 ID : 6 Format : UTF-8 Codec ID : S_TEXT/UTF8 Codec ID/Info : UTF-8 Plain Text Duration : 1 h 19 min Bit rate : 98 b/s Count of elements : 949 Stream size : 57.4 KiB (0%) Language : Russian Default : No Forced : No Text #3 ID : 7 Format : UTF-8 Codec ID : S_TEXT/UTF8 Codec ID/Info : UTF-8 Plain Text Duration : 1 h 19 min Bit rate : 52 b/s Count of elements : 963 Stream size : 30.3 KiB (0%) Language : English Default : No Forced : No Text #4 ID : 8 Format : UTF-8 Codec ID : S_TEXT/UTF8 Codec ID/Info : UTF-8 Plain Text Duration : 1 h 26 min Bit rate : 46 b/s Count of elements : 993 Stream size : 29.6 KiB (0%) Language : French Default : No Forced : No Text #5 ID : 9 Format : UTF-8 Codec ID : S_TEXT/UTF8 Codec ID/Info : UTF-8 Plain Text Duration : 1 h 26 min Bit rate : 45 b/s Count of elements : 993 Stream size : 28.9 KiB (0%) Language : Spanish Default : No Forced : No Text #6 ID : 10 Format : UTF-8 Codec ID : S_TEXT/UTF8 Codec ID/Info : UTF-8 Plain Text Duration : 1 h 26 min Bit rate : 44 b/s Count of elements : 984 Stream size : 28.0 KiB (0%) Language : Finnish Default : No Forced : No Text #7 ID : 11 Format : UTF-8 Codec ID : S_TEXT/UTF8 Codec ID/Info : UTF-8 Plain Text Duration : 1 h 26 min Bit rate : 48 b/s Count of elements : 986 Stream size : 30.6 KiB (0%) Language : Swedish Default : No Forced : No Text #8 ID : 12 Format : UTF-8 Codec ID : S_TEXT/UTF8 Codec ID/Info : UTF-8 Plain Text Duration : 1 h 26 min Bit rate : 43 b/s Count of elements : 969 Stream size : 27.7 KiB (0%) Language : Danish Default : No Forced : No Text #9 ID : 13 Format : UTF-8 Codec ID : S_TEXT/UTF8 Codec ID/Info : UTF-8 Plain Text Duration : 1 h 26 min Bit rate : 43 b/s Count of elements : 990 Stream size : 27.8 KiB (0%) Language : Norwegian Default : No Forced : No Menu 00:00:00.000 : en:Chapter 1 00:14:18.983 : en:Chapter 2 00:22:45.614 : en:Chapter 3 00:31:35.227 : en:Chapter 4 00:46:55.438 : en:Chapter 5 00:56:16.498 : en:Chapter 6 01:07:33.841 : en:Chapter 7 01:20:56.226 : en:Chapter 8

Всего файлов в раздаче: 1 
Jules.2023.REMUX.mkv18.17 GB

Похожие раздачи по запросу - Джулс
2024-07-13 magnet Джулс / Jules (2023) BDRip 1080p от Generalfilm | D 4.39 GB ↑ 0 ↓ 5
2024-07-09 magnet Джулс / Jules (2023) BDRip от New-Team | D 1.46 GB ↑ 0 ↓ 1
2024-07-09 magnet Джулс / Jules (2023) BDRip от DoMiNo & селезень | D, P | Мосфильм-Мастер, TVShows 1.46 GB ↑ 0 ↓ 0
2024-07-09 magnet Джулс / Jules (2023) BDRip 720p от DoMiNo & селезень | D, P | Мосфильм-Мастер, TVShows 2.97 GB ↑ 0 ↓ 2
2023-09-29 magnet Джулс / Jules (2023) WEB-DLRip от toxics | D 743.70 MB ↑ 0 ↓ 0
2023-09-28 magnet Джулс / Jules (2023) WEB-DLRip-AVC от DoMiNo & селезень | P | TVShows 1.46 GB ↑ 1 ↓ 0

Комментарии


Зарегистрируйтесь чтобы добавить комментарий
Торрент клиент
byTorrent - программа для загрузки торрент-файлов.

Скачать byTorrent.exe (1,5 МБ)

Скачать byTorrent.zip (0,6 МБ)

Поддержи torrent.by
российских рублей
(300 российских рублей это 4$)

Обратная связь rss

End game ©