↑↓torrent.by
Поиск
Логин:  Регистрация
Пароль:

Джулс / Jules (2023) BDRip от New-Team | D

download Скачать торрент-файл   magnet Магнитная ссылка Размер: 1.46 GB Добавлен: 2024-07-09 05:00
Пиры будут получены из сети DHT
Последний сидер был замечен 2024-07-09 23:53
Джулс / Jules Год выпуска: 2023 Выпущено: США / Big Beach Films Жанр: фантастика, драма, комедия Режиссер: Марк Тёртлтауб / Marc Turtletaub В ролях: Бен Кингсли, Харриет Сэнсом Харрис, Джейн Кертин, Тедди Каньес, Нареа Кан, Эдвард Джеймс Хайланд, Блэр Бэйкер, Джошуа Арден, Джон Скелли, Кристофер Кин Келли, Зои Уинтерс, Джейд Квон, Оби Меррилиз, Эндрю Дэйли, Эрик Миллер О фильме: Милтон живет тихой жизнью в маленьком городке на западе Пенсильвании. Но однажды на его заднем дворе приземляется НЛО… с пришельцем внутри. Между Милтоном и инопланетянином завязывается дружба, но все становится сложно, когда об этой удивительной истории узнают сначала соседи, а затем и правительство. Продолжительность: 01:27:22 Перевод: Профессиональный (полное дублирование) | Мосфильм-Мастер Субтитры: Русские (forced, full), английские Раздача от : Формат: AVI Качество: BDRip | Jules.2023.REMUX Видео: 704x352 (2.000), 23.976 fps, XviD MPEG-4 ~ 2004 kbps avg, 0.337 bit/pixel, build 73 Аудио: 48 kHz, AC3 Dolby Digital, 3/2 (L,C,R,l,r) + LFE ch, ~ 384 kbps | RUS |
[+] MediaInfoОбщее Полное имя : D:TorrentsJules.2023.BDRip_от New-TeamJules.2023.BDRip_от New-Team.avi Формат : AVI Формат/Информация : Audio Video Interleave Размер файла : 1,46 Гбайт Продолжительность : 1 ч. 27 м. Общий поток : 2 397 Кбит/сек Программа кодирования : VirtualDubMod 1.5.10.2 (build 2540/release) Библиотека кодирования : VirtualDubMod build 2540/release Видео Идентификатор : 0 Формат : MPEG-4 Visual Профиль формата : Advanced Simple@L5 Настройки формата : BVOP1 / Custom Matrix Параметр BVOP формата : 1 Параметр QPel формата : Нет Параметр GMC формата : Без точки перехода Параметр матрицы формата : Выборочная Идентификатор кодека : XVID Идентификатор кодека/Подсказка : XviD Продолжительность : 1 ч. 27 м. Битрейт : 2 004 Кбит/сек Ширина : 704 пикселя Высота : 352 пикселя Соотношение сторон : 2,000 Частота кадров : 23,976 (24000/1001) кадра/сек Цветовое пространство : YUV Субдискретизация насыщенности : 4:2:0 Битовая глубина : 8 бит Тип развёртки : Прогрессивная Метод сжатия : С потерями Бит/(Пиксели*Кадры) : 0.337 Размер потока : 1,22 Гбайт (84%) Библиотека кодирования : XviD 73 Аудио Идентификатор : 1 Формат : AC-3 Формат/Информация : Audio Coding 3 Коммерческое название : Dolby Digital Идентификатор кодека : 2000 Продолжительность : 1 ч. 27 м. Вид битрейта : Постоянный Битрейт : 384 Кбит/сек Каналы : 6 каналов Channel layout : L R C LFE Ls Rs Частота : 48,0 КГц Частота кадров : 31,250 кадров/сек (1536 SPF) Метод сжатия : С потерями Размер потока : 240 Мбайт (16%) Выравнивание : Разделение по промежуткам Продолжительность промежутка : 42 мс. (1,00 видеокадр) Время предзагрузки промежутка : 500 мс. Service kind : Complete Main

Всего файлов в раздаче: 4 
Jules.2023.BDRip_от New-Team.avi1.46 GB
Jules.2023.BDRip_от New-Team_[eng].srt67.85 kB
Jules.2023.BDRip_от New-Team_forced_[rus].srt1.30 kB
Jules.2023.BDRip_от New-Team_full_[rus].srt94.36 kB

Похожие раздачи по запросу - Джулс
2024-07-13 magnet Джулс / Jules (2023) BDRip 1080p от Generalfilm | D 4.39 GB ↑ 0 ↓ 1
2024-07-09 magnet Джулс / Jules (2023) BDRemux 1080p | D, P 18.17 GB ↑ 0 ↓ 1
2024-07-09 magnet Джулс / Jules (2023) BDRip от DoMiNo & селезень | D, P | Мосфильм-Мастер, TVShows 1.46 GB ↑ 0 ↓ 0
2024-07-09 magnet Джулс / Jules (2023) BDRip 720p от DoMiNo & селезень | D, P | Мосфильм-Мастер, TVShows 2.97 GB ↑ 0 ↓ 1
2023-09-29 magnet Джулс / Jules (2023) WEB-DLRip от toxics | D 743.70 MB ↑ 0 ↓ 0
2023-09-28 magnet Джулс / Jules (2023) WEB-DLRip-AVC от DoMiNo & селезень | P | TVShows 1.46 GB ↑ 1 ↓ 0

Комментарии


Зарегистрируйтесь чтобы добавить комментарий
Торрент клиент
byTorrent - программа для загрузки торрент-файлов.

Скачать byTorrent.exe (1,5 МБ)

Скачать byTorrent.zip (0,6 МБ)

Поддержи torrent.by
российских рублей
(300 российских рублей это 4$)

Обратная связь rss

End game ©