↑↓torrent.by
Поиск
Логин:  Регистрация
Пароль:

Зрение / Взгляд / Sight (2023) WEBRip-AVC | L | RGB

download Скачать торрент-файл   magnet Магнитная ссылка Размер: 1.46 GB Раздают: 1 Качают: 0 Добавлен: il68k 2024-07-09 09:06
Пиры будут получены из сети DHT
Последний сидер был замечен сегодня в 02:23
Информация о фильме Название: Зрение / Взгляд Оригинальное название: Sight Год выхода: 2023 Жанр: драма, биография, история Режиссер: Эндрю Хайатт В ролях: Терри Чен, Грег Кинниэр, Наташа Мумба, Финола Флэнаган, Миа Сваминатан, Рэймонд Ма, Вай Чин Хо, Гарлэнд Чанг, Дональд Хэн, Лиэнн Ван О фильме: История бедного китайского иммигранта, доктора Мин Вана, который изо всех сил пытался стать всемирно известным хирургом-офтальмологом в США. Мин, молодой человек, живущий в сельской местности Китая в 1970-х годах, сталкивается с преследованием и отчаянием на каждом шагу; Но при поддержке своей преданной семьи и собственной непоколебимой решимости он находит дорогу в Америку, учится в Гарварде и Массачусетском технологическом институте и помогает разрабатывать новаторские технологии, которые вернут зрение миллионам. Взяв на себя, казалось бы, невыполнимую задачу помочь слепому сироте, доктор Ван должен смириться со своим травмирующим прошлым и столкнуться с суровой реальностью. Страна: США Студия: Open River Entertainment, Reserve Entertainment Продолжительность: 01:42:45 Перевод: Любительский (многоголосый закадровый) | RGB Файл Кодек: Н.264 Качество: WEBRip-AVC Видео: MPEG-4 AVC, 1652 Kbps, 1024x512 (2.000), 23.976 fps, 0.131 bit/pixel, High@L4.1 Звук 1: 48 kHz, AC3 Dolby Digital, 2/0 (L, R) ch, ~192 kbps | RGB Звук 2: 48 kHz, AC3 Dolby Digital, 2/0 (L, R) ch, ~192 kbps | Английский Субтитры: английские (forced - на китайскую речь, full) Семпл
[+] Скриншоты
[+] MediaInfo raw : 1024x512p 1:1 @ 24000/1001 fps (cfr) x264 : using SAR=1/1 x264 : using cpu capabilities: MMX2 SSE2Fast SSSE3 SSE4.2 AVX FMA3 BMI2 AVX2 x264 : profile High, level 4.1, 4:2:0, 8-bit x264 : frame I:1334 Avg QP:11.46 size: 56968 x264 : frame P:37738 Avg QP:14.29 size: 17872 x264 : frame B:108748 Avg QP:14.79 size: 4793 x264 : consecutive B-frames: 2.0% 3.3% 4.8% 75.8% 5.3% 4.5% 0.8% 1.1% 0.3% 0.2% 0.3% 0.6% 1.1% x264 : mb I I16..4: 12.7% 51.8% 35.5% x264 : mb P I16..4: 2.8% 11.8% 3.4% P16..4: 32.4% 23.3% 14.9% 0.0% 0.0% skip:11.4% x264 : mb B I16..4: 0.5% 1.3% 0.3% B16..8: 29.3% 12.9% 3.4% direct: 5.4% skip:47.1% L0:44.2% L1:43.4% BI:12.4% x264 : 8x8 transform intra:63.3% inter:42.3% x264 : direct mvs spatial:97.4% temporal:2.6% x264 : coded y, uvDC, uvAC intra: 68.7% 69.7% 58.5% inter: 15.2% 17.3% 9.6% x264 : i16 v, h, dc, p: 48% 25% 9% 18% x264 : i8 v, h, dc, ddl, ddr, vr, hd, vl, hu: 25% 19% 19% 5% 6% 7% 6% 7% 7% x264 : i4 v, h, dc, ddl, ddr, vr, hd, vl, hu: 26% 18% 12% 6% 9% 9% 8% 7% 6% x264 : i8c dc, h, v, p: 52% 21% 20% 7% x264 : Weighted P-Frames: Y:2.4% UV:1.4% x264 : ref P L0: 55.1% 6.4% 16.3% 5.5% 4.4% 3.0% 2.6% 1.4% 1.3% 1.1% 1.0% 0.9% 0.9% 0.0% 0.0% x264 : ref B L0: 73.4% 11.4% 5.5% 2.4% 1.9% 1.5% 1.2% 0.8% 0.7% 0.6% 0.4% 0.2% x264 : ref B L1: 95.1% 4.9% x264 : kb/s:1650.11 x264 : encoded 147820 frames, 18.63 fps, 1650.11 kb/s =================================================================== General Unique ID: 192149916893129094087657798699210976175 (0x908EBA560E27E26899B6095692EB2BAF) Complete name: D:\Zrenie.2023.WEBRip.AVC.mkv Format: Matroska Format version: Version 4 File size: 1.46 GiB Duration: 1 h 42 min Overall bit rate: 2 036 kb/s Frame rate: 23.976 FPS Movie name: Sight (2023) WEBRip-AVC _ vitolinform Encoded date: 2024-07-08 20:12:47 UTC Writing application: mkvmerge v85.0 ('Shame For You') 64-bit Writing library: libebml v1.4.5 + libmatroska v1.7.1 Attachments: poster.jpg / log.log Video ID: 1 Format: AVC Format/Info: Advanced Video Codec Format profile: High@L4.1 Format settings: CABAC / 13 Ref Frames Format settings, CABAC: Yes Format settings, Reference frames: 13 frames Codec ID: V_MPEG4/ISO/AVC Duration: 1 h 42 min Bit rate: 1 652 kb/s Width: 1 024 pixels Height: 512 pixels Display aspect ratio: 2.000 Frame rate mode: Constant Frame rate: 23.976 (24000/1001) FPS Color space: YUV Chroma subsampling: 4:2:0 Bit depth: 8 bits Scan type: Progressive Bits/(Pixel*Frame): 0.131 Stream size: 1.18 GiB (81%) Title: Зрение / Взгляд / Sight (2023) Writing library: x264 core 164 r3182 be4f020 Encoding settings: cabac=1 / ref=13 / deblock=1:-3:-3 / analyse=0x3:0x113 / me=umh / subme=10 / psy=1 / psy_rd=1.00:0.05 / mixed_ref=1 / me_range=32 / chroma_me=1 / trellis=2 / 8x8dct=1 / cqm=0 / deadzone=21, 11 / fast_pskip=0 / chroma_qp_offset=-3 / threads=12 / lookahead_threads=3 / sliced_threads=0 / nr=0 / decimate=0 / interlaced=0 / bluray_compat=0 / constrained_intra=0 / bframes=12 / b_pyramid=2 / b_adapt=2 / b_bias=0 / direct=3 / weightb=1 / open_gop=0 / weightp=2 / keyint=240 / keyint_min=24 / scenecut=40 / intra_refresh=0 / rc_lookahead=60 / rc=2pass / mbtree=0 / bitrate=1652 / ratetol=1.0 / qcomp=0.60 / qpmin=0 / qpmax=69 / qpstep=4 / cplxblur=20.0 / qblur=0.5 / vbv_maxrate=50000 / vbv_bufsize=62500 / nal_hrd=none / filler=0 / ip_ratio=1.40 / pb_ratio=1.30 / aq=1:1.00 Language: English Default: Yes Forced: No Color range: Limited Color primaries: BT.709 Transfer characteristics: BT.709 Matrix coefficients: BT.709 Audio #1 ID: 2 Format: AC-3 Format/Info: Audio Coding 3 Commercial name: Dolby Digital Codec ID: A_AC3 Duration: 1 h 42 min Bit rate mode: Constant Bit rate: 192 kb/s Channel(s): 2 channels Channel layout: L R Sampling rate: 48.0 kHz Frame rate: 31.250 FPS (1536 SPF) Compression mode: Lossy Stream size: 141 MiB (9%) Title: MVO | RGB Language: Russian Service kind: Complete Main Default: Yes Forced: No Audio #2 ID: 3 Format: AC-3 Format/Info: Audio Coding 3 Commercial name: Dolby Digital Codec ID: A_AC3 Duration: 1 h 42 min Bit rate mode: Constant Bit rate: 192 kb/s Channel(s): 2 channels Channel layout: L R Sampling rate: 48.0 kHz Frame rate: 31.250 FPS (1536 SPF) Compression mode: Lossy Stream size: 141 MiB (9%) Title: English Language: English Service kind: Complete Main Default: No Forced: No Text ID: 4 Format: UTF-8 Codec ID: S_TEXT/UTF8 Codec ID/Info: UTF-8 Plain Text Duration: 1 h 37 min Bit rate: 36 b/s Frame rate: 0.152 FPS Count of elements: 889 Stream size: 26.2 KiB (0%) Title: Full Language: English Default: No Forced: No
Rip by vitolinform

Всего файлов в раздаче: 1 
Zrenie.2023.WEBRip.AVC.mkv1.46 GB

Похожие раздачи по запросу - Зрение
2024-07-08 magnet Зрение / Взгляд / Sight (2023) WEBRip-AVC | L | RGB 1.48 GB ↑ 1 ↓ 0
2024-07-08 magnet Зрение / Взгляд / Sight (2023) WEBRip 1080p | L | RGB 2.69 GB ↑ 4 ↓ 0

Комментарии


Зарегистрируйтесь чтобы добавить комментарий
Торрент клиент
byTorrent - программа для загрузки торрент-файлов.

Скачать byTorrent.exe (1,5 МБ)

Скачать byTorrent.zip (0,6 МБ)

Поддержи torrent.by
российских рублей
(300 российских рублей это 4$)

Обратная связь rss

End game ©