↑↓torrent.by
Поиск
Логин:  Регистрация
Пароль:

Сирота казанская (1997) WEB-DLRip от New-Team

download Скачать торрент-файл   magnet Магнитная ссылка Размер: 1.09 GB Добавлен: 2024-07-09 11:00
Пиры будут получены из сети DHT
Последний сидер был замечен 2024-07-09 14:38
Страна: Россия Производство: НТВ-Профит Жанр: мелодрама, комедия Год выпуска: 1997 Продолжительность: 01:21:29 Перевод: не требуется Оригинальная аудиодорожка: русский Cубтитры: нет Режиссер: Владимир Машков В ролях: Елена Шевченко, Николай Фоменко, Олег Табаков, Валентин Гафт, Лев Дуров, Виктор Павлов, Татьяна Рогозина, Федор Валиков, Владимир Машков, Михаил Филипчук... Подробнее об актерах Описание: Молодая учительница Настя решила после смерти матери опубликовать ее не отправленное письмо некоему Павлу… Так, однажды в новогоднюю ночь, в поселке появляются три Павла — очень неординарные личности. Труднее всего приходится ее жениху Коле: одно дело сирота, а тут сразу три отца! Исходник: WEB-DL 1080p Тип релиза: WEB-DLRip Контейнер: AVI Видео: 720x544 (4:3), 29,970 кадра/сек, XviD 73 ~ 1 711 кбит/сек, 0.146 бит/пиксель Аудио: 48 кГц, Dolby Digital AC3 2.0, 192 кбит/сек Раздача от:
[+] MediaInfo Общее Полное имя : Сирота казанская.1997.WEB-DLRip__by_AVP_Studio.avi Формат : AVI Формат/Информация : Audio Video Interleave Настройки формата : BitmapInfoHeader / WaveFormatEx Размер файла : 1,09 Гбайт Продолжительность : 1 ч. 21 м. Общий поток : 1 915 Кбит/сек Частота кадров : 29,970 кадров/сек Программа кодирования : VirtualDubMod 1.5.10.3 | www.virtualdub-fr.org || (build 2550/release) Библиотека кодирования : VirtualDubMod build 2550/release Видео Идентификатор : 0 Формат : MPEG-4 Visual Профиль формата : Advanced Simple@L5 Настройки формата : BVOP1 / Custom Matrix Параметр BVOP формата : 1 Параметр QPel формата : Нет Параметр GMC формата : Без точки перехода Параметр матрицы формата : Выборочная Идентификатор кодека : XVID Идентификатор кодека/Подсказка : XviD Продолжительность : 1 ч. 21 м. Битрейт : 1 711 Кбит/сек Ширина : 720 пикселей Высота : 544 пикселя Соотношение сторон : 4:3 Частота кадров : 29,970 (30000/1001) кадров/сек Цветовое пространство : YUV Субдискретизация насыщенности : 4:2:0 Битовая глубина : 8 бит Тип развёртки : Прогрессивная Метод сжатия : С потерями Бит/(Пиксели*Кадры) : 0.146 Размер потока : 997 Мбайт (89%) Библиотека кодирования : XviD 73 Аудио Идентификатор : 1 Формат : AC-3 Формат/Информация : Audio Coding 3 Коммерческое название : Dolby Digital Идентификатор кодека : 2000 Продолжительность : 1 ч. 21 м. Вид битрейта : Постоянный Битрейт : 192 Кбит/сек Каналы : 2 канала Channel layout : L R Частота : 48,0 КГц Частота кадров : 31,250 кадров/сек (1536 SPF) Метод сжатия : С потерями Размер потока : 112 Мбайт (10%) Выравнивание : Разделение по промежуткам Продолжительность промежутка : 33 мс. (1,00 видеокадр) Время предзагрузки промежутка : 500 мс
[+] Скриншоты

Всего файлов в раздаче: 1 
Сирота казанская.1997.WEB-DLRip_[New-team]_by_AVP_Studio.avi1.09 GB

Похожие раздачи по запросу - Сирота
2023-12-18 magnet Сирота Э.Л. - История России. Для тех, кто хочет все успеть (2024) FB2 4.99 MB ↑ 0 ↓ 0

Комментарии


Зарегистрируйтесь чтобы добавить комментарий
Торрент клиент
byTorrent - программа для загрузки торрент-файлов.

Скачать byTorrent.exe (1,5 МБ)

Скачать byTorrent.zip (0,6 МБ)

Поддержи torrent.by
российских рублей
(300 российских рублей это 4$)

Обратная связь rss

End game ©