↑↓torrent.by
Поиск
Логин:  Регистрация
Пароль:

Истребители (1939) SATRip-AVC от New-Team

download Скачать торрент-файл   magnet Магнитная ссылка Размер: 1.09 GB Добавлен: 2024-07-09 11:00
Пиры будут получены из сети DHT
Последний сидер был замечен 2024-07-09 22:53
Страна: СССР Производство: Киевская киностудия Жанр: приключения Год выпуска: 1939 Продолжительность: 1:31:46 Перевод: не требуется Оригинальная аудиодорожка: русский Cубтитры: нет Режиссер: Эдуард Пенцлин В ролях: Марк Бернес, Евгения Голынчик, Борис Андреев, Федор Селезнев, Владимир Уральский, Алексей Загорский, Елена Музиль, Е. Лилина, Степан Жаворонок, Евгений Агеев... Подробнее об актерах Описание: Летчики-истребители Сергей и Николай вместе испытывают новые самолеты и во всем стараются превзойти друг друга. Их соперничество началось еще в школьные годы, когда оба были увлечены симпатичной одноклассницей Варей. Трагическая случайность привела Сергея к полной слепоте. Варе, давно любящей его, предстоит нелегкое решение: стать женой инвалида… Исходник: DVB Тип релиза: SATRip-AVC Контейнер: MKV Видео: 704->709x532 (4:3), 25 кадров/сек, x264 core 164 r3182 ~ 1497 кбит/сек, 0.160 бит/пиксель Аудио: 48 кГц, Dolby Digital AC3 2.0, 192 кбит/сек Раздача от:
[+] MediaInfo Общее Полное имя : Истребители.1939.SATRip-AVC__by_AVP_Studio.mkv Формат : Matroska Версия формата : Version 2 Размер файла : 1,09 Гбайт Продолжительность : 1 ч. 32 мин. Общий битрейт : 1 691 Кбит/сек Частота кадров : 25,000 кадров/сек Дата кодирования : 2024-07-07 17:18:30 UTC Программа кодирования : mkvmerge v6.9.1 ('Blue Panther') 32bit built on Apr 18 2014 18:15:44 Библиотека кодирования : libebml v1.3.0 + libmatroska v1.4.1 Видео Идентификатор : 1 Формат : AVC Формат/Информация : Advanced Video Codec Профиль формата : High@L4.1 Настройки формата : CABAC / 10 Ref Frames Параметр CABAC формата : Да Параметр RefFrames формата : 10 кадров Идентификатор кодека : V_MPEG4/ISO/AVC Продолжительность : 1 ч. 32 мин. Битрейт : 1 497 Кбит/сек Ширина : 704 пикселя Высота : 532 пикселя Соотношение сторон дисплея : 4:3 Режим частоты кадров : Постоянный Частота кадров : 25,000 кадров/сек Цветовое пространство : YUV Цветовая субдискретизация : 4:2:0 Битовая глубина : 8 бит Тип развёртки : Прогрессивная Бит/(Пиксели*Кадры) : 0.160 Размер потока : 966 Мбайт (87%) Библиотека кодирования : x264 core 164 r3182 be4f020 Параметры библиотеки кодирования : cabac=1 / ref=10 / deblock=1:-2:-1 / analyse=0x3:0x113 / me=umh / subme=10 / psy=1 / psy_rd=1.00:0.00 / mixed_ref=1 / me_range=32 / chroma_me=1 / trellis=2 / 8x8dct=1 / cqm=0 / deadzone=21,11 / fast_pskip=1 / chroma_qp_offset=-2 / threads=6 / lookahead_threads=1 / sliced_threads=0 / nr=0 / decimate=0 / interlaced=0 / bluray_compat=0 / constrained_intra=0 / bframes=8 / b_pyramid=2 / b_adapt=2 / b_bias=0 / direct=3 / weightb=1 / open_gop=0 / weightp=2 / keyint=250 / keyint_min=25 / scenecut=40 / intra_refresh=0 / rc=2pass / mbtree=0 / bitrate=1497 / ratetol=1.0 / qcomp=0.60 / qpmin=0 / qpmax=69 / qpstep=4 / cplxblur=20.0 / qblur=0.5 / ip_ratio=1.40 / pb_ratio=1.30 / aq=1:1.00 По умолчанию : Да Принудительно : Нет Аудио Идентификатор : 2 Формат : AC-3 Формат/Информация : Audio Coding 3 Коммерческое название : Dolby Digital Идентификатор кодека : A_AC3 Продолжительность : 1 ч. 32 мин. Вид битрейта : Постоянный Битрейт : 192 Кбит/сек Канал(-ы) : 2 канала Расположение каналов : L R Частота дискретизации : 48,0 КГц Частота кадров : 31,250 кадров/сек (1536 SPF) Метод сжатия : С потерями Размер потока : 127 Мбайт (11%) По умолчанию : Да Принудительно : Нет Нормализация звука речи : -31 dB dialnorm_Average : -31 dB dialnorm_Minimum : -31 dB dialnorm_Maximum : -31 dB
[+] Скриншоты

Всего файлов в раздаче: 1 
Истребители.1939.SATRip-AVC_[New-team]_by_AVP_Studio.mkv1.09 GB

Похожие раздачи по запросу - Истребители
2024-07-08 magnet Истребители (1939) DVDRip-AVC от New-Team 1.46 GB ↑ 0 ↓ 0
2024-05-09 magnet Истребители: Битва за Kpым [S01] (2024) WEBRip от Generalfilm | КПК 1.19 GB ↑ 0 ↓ 0
2024-05-08 magnet Истребители. Битва за Kpым [S01] (2024) WEBRip-AVC от Files-x 4.02 GB ↑ 0 ↓ 0
2024-05-08 magnet Истребители. Битва за Крым / Серии: 1-6 из 6 [2024, военный, WEBRip-AVC] от Aleksan55 4.03 GB ↑ 0 ↓ 0
2024-05-08 magnet Истребители. Битва за Крым [S01] (2024) WEBRip 1080p от MegaPeer 11.34 GB ↑ 0 ↓ 0
2024-05-08 magnet Истребители. Битва за Kpым [S01] (2024) WEBRip от Files-x 4.01 GB ↑ 0 ↓ 0

Комментарии


Зарегистрируйтесь чтобы добавить комментарий
Торрент клиент
byTorrent - программа для загрузки торрент-файлов.

Скачать byTorrent.exe (1,5 МБ)

Скачать byTorrent.zip (0,6 МБ)

Поддержи torrent.by
российских рублей
(300 российских рублей это 4$)

Обратная связь rss

End game ©