↑↓torrent.by
Поиск
Логин:  Регистрация
Пароль:

Сотня лжи / A Hundred Lies (2024) WEBRip-AVC | L | RGB

download Скачать торрент-файл   magnet Магнитная ссылка Размер: 1.70 GB Добавлен: il68k 2024-07-09 13:15
Пиры будут получены из сети DHT
Последний сидер был замечен сегодня в 08:37
Информация о фильме Название: Сотня лжи Оригинальное название: A Hundred Lies Год выхода: 2023 Жанр: драма Режиссер: Рузбех Хейдари В ролях: Роб Рако, Дэна Абрахам, Умберли Гонсалес, Брэндон МакНайт, Джессика Эмли, Стивен Трэйси, Майкл Ксавьер, Чейз Тан, Мерседес Бланш, Ник Нейм О фильме: Рикки, 25-летний музыкант из Торонто, стоит на пороге возрождения своей музыкальной карьеры благодаря сотрудничеству с андеграундным продюсером Терренсом. Их музыка начинает набирать обороты, привлекая внимание всё большего числа слушателей. В это время певица Фиона, которая также вовлечена в их проекты, сталкивается с темной стороной прошлого Рикки, находя следы старой трагедии, которая могла бы подвергнуть риску их восходящий успех. По мере того как карьера Рикки и Фионы стремительно идет вверх, они начинают осознавать, что успех в музыкальной индустрии не приходит без жертв. Смогут ли они сохранить свою артистическую идентичность и личную честность, когда вокруг так много искушений и тайн? И какую цену придется заплатить за мечту о звездной жизни, когда тени прошлого не желают уходить? Страна: Канада Студия: Red Hill Entertainment Продолжительность: 01:34:38 Перевод: Любительский (многоголосый закадровый) | RGB Файл Кодек: Н.264 Качество: WEBRip-AVC Видео: MPEG-4 AVC, 1802 Kbps, 1024x424 (2.40:1), 23.976 fps, 0.173 bit/pixel, High@L4.1 Звук 1: 48 kHz, AC3 Dolby Digital, 3/2 (L, C, R, l, r) + LFE ch, ~384 kbps | RGB Звук 2: 48 kHz, AC3 Dolby Digital, 3/2 (L, C, R, l, r) + LFE ch, ~384 kbps | Английский Субтитры: английские (full, SDH) Семпл
[+] Скриншоты
[+] MediaInfo raw : 1024x424p 1:1 @ 24000/1001 fps (cfr) x264 : using SAR=1/1 x264 : using cpu capabilities: MMX2 SSE2Fast SSSE3 SSE4.2 AVX FMA3 BMI2 AVX2 x264 : profile High, level 4.1, 4:2:0, 8-bit x264 : frame I:920 Avg QP:12.69 size: 44851 x264 : frame P:30257 Avg QP:14.49 size: 21289 x264 : frame B:104976 Avg QP:16.48 size: 5653 x264 : consecutive B-frames: 1.5% 1.6% 5.1% 42.1% 15.1% 26.0% 3.3% 1.7% 1.9% 0.3% 0.1% 0.6% 0.1% 0.2% 0.6% x264 : mb I I16..4: 9.9% 79.2% 10.9% x264 : mb P I16..4: 1.8% 14.6% 1.1% P16..4: 36.1% 28.9% 15.3% 0.0% 0.0% skip: 2.2% x264 : mb B I16..4: 0.1% 0.7% 0.0% B16..8: 38.7% 14.4% 3.4% direct: 5.8% skip:36.8% L0:46.4% L1:44.7% BI: 8.9% x264 : 8x8 transform intra:82.8% inter:58.7% x264 : direct mvs spatial:100.0% temporal:0.0% x264 : coded y, uvDC, uvAC intra: 88.4% 84.2% 72.7% inter: 21.3% 23.4% 12.1% x264 : i16 v, h, dc, p: 31% 11% 17% 41% x264 : i8 v, h, dc, ddl, ddr, vr, hd, vl, hu: 13% 8% 14% 9% 11% 11% 11% 11% 12% x264 : i4 v, h, dc, ddl, ddr, vr, hd, vl, hu: 14% 6% 5% 11% 15% 14% 12% 11% 12% x264 : i8c dc, h, v, p: 49% 22% 17% 12% x264 : Weighted P-Frames: Y:4.1% UV:2.5% x264 : ref P L0: 44.9% 5.4% 18.0% 6.6% 5.9% 3.8% 3.8% 1.9% 2.0% 1.4% 1.6% 1.2% 1.3% 1.0% 1.2% 0.0% x264 : ref B L0: 71.4% 12.0% 5.4% 2.8% 1.9% 1.6% 1.2% 0.8% 0.7% 0.6% 0.5% 0.5% 0.3% 0.2% x264 : ref B L1: 95.3% 4.7% x264 : kb/s:1801.61 x264 : encoded 136153 frames, 9.45 fps, 1801.61 kb/s ================================================================== General Unique ID: 61619555947963766083879926479934290632 (0x2E5B7EAAF36A3A59FCCA68D1B41D7AC8) Complete name: D:\Sotnya.lzhi.2024.WEB-DLRip.AVC.mkv Format: Matroska Format version: Version 4 File size: 1.70 GiB Duration: 1 h 34 min Overall bit rate: 2 571 kb/s Frame rate: 23.976 FPS Movie name: A Hundred Lies (2024) WEB-DLRip-AVC _ vitolinform Encoded date: 2024-07-09 09:29:46 UTC Writing application: mkvmerge v85.0 ('Shame For You') 64-bit Writing library: libebml v1.4.5 + libmatroska v1.7.1 Attachments: poster.jpg / log.log Video ID: 1 Format: AVC Format/Info: Advanced Video Codec Format profile: High@L4.1 Format settings: CABAC / 15 Ref Frames Format settings, CABAC: Yes Format settings, Reference frames: 15 frames Codec ID: V_MPEG4/ISO/AVC Duration: 1 h 34 min Bit rate: 1 802 kb/s Width: 1 024 pixels Height: 424 pixels Display aspect ratio: 2.40:1 Frame rate mode: Constant Frame rate: 23.976 (24000/1001) FPS Color space: YUV Chroma subsampling: 4:2:0 Bit depth: 8 bits Scan type: Progressive Bits/(Pixel*Frame): 0.173 Stream size: 1.19 GiB (70%) Title: Сотня лжи / A Hundred Lies (2024) Writing library: x264 core 164 r3182 be4f020 Encoding settings: cabac=1 / ref=15 / deblock=1:-3:-3 / analyse=0x3:0x113 / me=umh / subme=10 / psy=1 / psy_rd=1.00:0.05 / mixed_ref=1 / me_range=32 / chroma_me=1 / trellis=2 / 8x8dct=1 / cqm=0 / deadzone=21, 11 / fast_pskip=0 / chroma_qp_offset=-3 / threads=12 / lookahead_threads=3 / sliced_threads=0 / nr=0 / decimate=0 / interlaced=0 / bluray_compat=0 / constrained_intra=0 / bframes=14 / b_pyramid=2 / b_adapt=2 / b_bias=0 / direct=3 / weightb=1 / open_gop=0 / weightp=2 / keyint=240 / keyint_min=24 / scenecut=40 / intra_refresh=0 / rc_lookahead=60 / rc=crf / mbtree=0 / crf=18.0 / qcomp=0.60 / qpmin=0 / qpmax=69 / qpstep=4 / vbv_maxrate=50000 / vbv_bufsize=62500 / crf_max=0.0 / nal_hrd=none / filler=0 / ip_ratio=1.40 / pb_ratio=1.30 / aq=1:1.00 Language: English Default: Yes Forced: No Color range: Limited Color primaries: BT.709 Transfer characteristics: BT.709 Matrix coefficients: BT.709 Audio #1 ID: 2 Format: AC-3 Format/Info: Audio Coding 3 Commercial name: Dolby Digital Codec ID: A_AC3 Duration: 1 h 34 min Bit rate mode: Constant Bit rate: 384 kb/s Channel(s): 6 channels Channel layout: L R C LFE Ls Rs Sampling rate: 48.0 kHz Frame rate: 31.250 FPS (1536 SPF) Compression mode: Lossy Stream size: 260 MiB (15%) Title: MVO | RGB Language: Russian Service kind: Complete Main Default: Yes Forced: No Audio #2 ID: 3 Format: AC-3 Format/Info: Audio Coding 3 Commercial name: Dolby Digital Codec ID: A_AC3 Duration: 1 h 34 min Bit rate mode: Constant Bit rate: 384 kb/s Channel(s): 6 channels Channel layout: L R C LFE Ls Rs Sampling rate: 48.0 kHz Frame rate: 31.250 FPS (1536 SPF) Compression mode: Lossy Stream size: 260 MiB (15%) Title: English Language: English Service kind: Complete Main Default: No Forced: No Text #1 ID: 4 Format: UTF-8 Codec ID: S_TEXT/UTF8 Codec ID/Info: UTF-8 Plain Text Duration: 1 h 29 min Bit rate: 48 b/s Frame rate: 0.221 FPS Count of elements: 1186 Stream size: 32.0 KiB (0%) Title: Full Language: English Default: No Forced: No Text #2 ID: 5 Format: UTF-8 Codec ID: S_TEXT/UTF8 Codec ID/Info: UTF-8 Plain Text Duration: 1 h 31 min Bit rate: 63 b/s Frame rate: 0.288 FPS Count of elements: 1587 Stream size: 42.8 KiB (0%) Title: SDH Language: English Default: No Forced: No
Rip by vitolinform

Всего файлов в раздаче: 1 
Sotnya.lzhi.2024.WEB-DLRip.AVC.mkv1.70 GB

Похожие раздачи по запросу - Сотня
2024-07-08 magnet Сотня лжи / A Hundred Lies (2024) WEBRip-AVC | L | RGB 1.60 GB ↑ 5 ↓ 0
2024-07-08 magnet Сотня лжи / A Hundred Lies (2024) WEBRip 1080p | L | RGB 4.94 GB ↑ 2 ↓ 1

Комментарии


Зарегистрируйтесь чтобы добавить комментарий
Торрент клиент
byTorrent - программа для загрузки торрент-файлов.

Скачать byTorrent.exe (1,5 МБ)

Скачать byTorrent.zip (0,6 МБ)

Поддержи torrent.by
российских рублей
(300 российских рублей это 4$)

Обратная связь rss

End game ©