↑↓torrent.by
Поиск
Логин:  Регистрация
Пароль:

Дом Дракона / House of the Dragon [02x01-03 из 08] (2024) UHD WEB-DL 2160p | 4K | Dolby Vision TV | D | Кравец-Рекордз

download Скачать торрент-файл   magnet Магнитная ссылка Размер: 30.45 GB Добавлен: 2024-07-09 17:00
Пиры будут получены из сети DHT
Последний сидер был замечен 2024-07-09 17:00
ДАННЫЙ РЕЛИЗ БЕЗ HDR СЛОЯ, ТОЛЬКО ДЛЯ УСТРОЙСТВ С ПОДДЕРЖКОЙ DOLBY VISION. Если ваше устройство без поддержки DOLBY VISION, изображение будет "фиолетовое", как на первом скриншоте Название: Дом Дракона Оригинальное название: House of the Dragon Год выхода: 2024 Производство: США / HBO, 1:26 Pictures Жанр: Фэнтези, боевик, драма, мелодрама Перевод: Профессиональный дублированный Продолжительность: 03х ~01:00:00 Режиссёры: Алан Тейлор, Клер Килнер, Гита Патель, Андрий Парекх, Лони Перистер В ролях: Эмма Д`Арси, Мэтт Смит, Ив Бест, Оливия Кук, Рис Иванс, Соноя Мидзуно, Дэвид Хорович, Грэм МакТавиш, Билл Патерсон, Стив Туссэн, Уил Джонсон, Энтони Флэнеган, Эмили Кэри Описание: После смерти короля Визериса династия Таргариенов начинает бескомпромиссную борьбу за Железный трон. Предводительницей «чёрной» ветви становится принцесса Рейнира, а на стороне «зелёной» оказывается её лучшая подруга и дочь десницы короля Алисента. В битве за престол соперницы заручаются поддержкой неожиданных союзников, плетут интриги и используют разрушительную мощь драконов. Формат: MPEG-4 Качество: WEB-DL 2160p Видео: MPEGH HEVC / ~21.4 Mbps / 3840x1920 / 0.121 Бит/(Пиксели*Кадры) / 23.976 fps Аудио 01: E-AC-3, 6 ch, 448 kbps | Русский, DUB | Кравец-Рекордз | Аудио 02: E-AC-3 Atmos, 6 ch, 640 kbps | Английский | Субтитры: Русские (Full), Английские (Full, SDH) Доп. информация: Третья серия содержит эротическую сцену, вырезанную Амедиатекой, переведена русскими субтитрами ДАННЫЙ РЕЛИЗ БЕЗ HDR СЛОЯ, ТОЛЬКО ДЛЯ УСТРОЙСТВ С ПОДДЕРЖКОЙ DOLBY VISION. Если ваше устройство без поддержки DOLBY VISION, изображение будет "фиолетовое", как на первом скриншоте
[+] MediainfoGeneral Format : MPEG-4 Format profile : Base Media Codec ID : isom (isom/dby1/iso2/mp41) File size : 9.10 GiB Duration : 58 min 3 s Overall bit rate mode : Variable Overall bit rate : 22.4 Mb/s Frame rate : 23.976 FPS Movie name : House of the Dragon: A Son for a Son (2024) by TheEqualizer Tagged date : 2024-06-23 23:48:17 UTC Writing application : Lavf60.3.100 Cover : Yes Video ID : 1 Format : HEVC Format/Info : High Efficiency Video Coding Format profile : Main 10@L5.1@Main HDR format : Dolby Vision, Version 1.0, Profile 5, dvhe.05.06, BL+RPU, no metadata compression Codec ID : hev1 Codec ID/Info : High Efficiency Video Coding Duration : 58 min 3 s Bit rate : 21.4 Mb/s Width : 3 840 pixels Height : 1 920 pixels Display aspect ratio : 2.000 Frame rate mode : Constant Frame rate : 23.976 (24000/1001) FPS Color space : YUV Chroma subsampling : 4:2:0 Bit depth : 10 bits Bits/(Pixel*Frame) : 0.121 Stream size : 8.66 GiB (95%) Title : S02E01 - A Son for a Son Writing library : x265 3.5+1-f0c1022b6: 10bit Encoding settings : cpuid=1176575 / frame-threads=4 / wpp / no-pmode / no-pme / no-psnr / no-ssim / log-level=2 / input-csp=1 / input-res=3840x1920 / interlace=0 / total-frames=0 / level-idc=0 / high-tier=0 / uhd-bd=0 / ref=3 / no-allow-non-conformance / repeat-headers / annexb / aud / no-eob / no-eos / hrd / info / hash=0 / no-temporal-layers / no-open-gop / min-keyint=96 / keyint=96 / gop-lookahead=0 / bframes=4 / b-adapt=2 / b-pyramid / bframe-bias=0 / rc-lookahead=96 / lookahead-slices=8 / scenecut=40 / no-hist-scenecut / radl=0 / no-splice / no-intra-refresh / ctu=64 / min-cu-size=8 / no-rect / no-amp / max-tu-size=32 / tu-inter-depth=1 / tu-intra-depth=1 / limit-tu=0 / rdoq-level=0 / dynamic-rd=0.00 / no-ssim-rd / signhide / no-tskip / nr-intra=0 / nr-inter=0 / no-constrained-intra / strong-intra-smoothing / max-merge=3 / limit-refs=1 / no-limit-modes / me=1 / subme=2 / merange=57 / temporal-mvp / no-frame-dup / no-hme / weightp / weightb / no-analyze-src-pics / deblock=0:0 / no-sao / no-sao-non-deblock / rd=3 / selective-sao=0 / early-skip / rskip / no-fast-intra / no-tskip-fast / no-cu-lossless / b-intra / no-splitrd-skip / rdpenalty=0 / psy-rd=2.00 / psy-rdoq=0.00 / no-rd-refine / no-lossless / cbqpoffs=0 / crqpoffs=0 / rc=crf / crf=18.0 / qcomp=0.60 / qpstep=4 / stats-write=0 / stats-read=0 / vbv-maxrate=21900 / vbv-bufsize=40000 / vbv-init=0.9 / min-vbv-fullness=50.0 / max-vbv-fullness=80.0 / crf-max=0.0 / crf-min=0.0 / ipratio=1.40 / pbratio=1.30 / aq-mode=2 / aq-strength=1.00 / cutree / zone-count=0 / no-strict-cbr / qg-size=32 / no-rc-grain / qpmax=69 / qpmin=0 / no-const-vbv / sar=1 / overscan=0 / videoformat=5 / range=1 / colorprim=2 / transfer=2 / colormatrix=2 / chromaloc=0 / display-window=0 / cll=0,0 / min-luma=0 / max-luma=1023 / log2-max-poc-lsb=8 / vui-timing-info / vui-hrd-info / slices=1 / no-opt-qp-pps / no-opt-ref-list-length-pps / no-multi-pass-opt-rps / scenecut-bias=0.05 / hist-threshold=0.03 / no-opt-cu-delta-qp / no-aq-motion / no-hdr10 / no-hdr10-opt / no-dhdr10-opt / no-idr-recovery-sei / analysis-reuse-level=0 / analysis-save-reuse-level=0 / analysis-load-reuse-level=0 / scale-factor=0 / refine-intra=0 / refine-inter=0 / refine-mv=1 / refine-ctu-distortion=0 / no-limit-sao / ctu-info=0 / no-lowpass-dct / refine-analysis-type=0 / copy-pic=1 / max-ausize-factor=1.0 / no-dynamic-refine / no-single-sei / no-hevc-aq / no-svt / no-field / qp-adaptation-range=1.00 / scenecut-aware-qp=0conformance-window-offsets / right=0 / bottom=0 / decoder-max-rate=0 / no-vbv-live-multi-pass Language : English Tagged date : 2024-06-23 23:48:17 UTC Color range : Full Menus : 9 Codec configuration box : hvcC+dvcC Audio #1 ID : 3 Format : E-AC-3 Format/Info : Enhanced AC-3 Commercial name : Dolby Digital Plus Codec ID : ec-3 Duration : 58 min 3 s Bit rate mode : Constant Bit rate : 448 kb/s Channel(s) : 6 channels Channel layout : L R C LFE Ls Rs Sampling rate : 48.0 kHz Frame rate : 31.250 FPS (1536 SPF) Compression mode : Lossy Stream size : 186 MiB (2%) Title : DUB | Kravec-Records Language : Russian Service kind : Complete Main Default : Yes Alternate group : 1 Tagged date : 2024-06-23 23:48:17 UTC Menus : 9 Dialog Normalization : -31 dB compr : -0.28 dB dmixmod : Lo/Ro ltrtcmixlev : -3.0 dB ltrtsurmixlev : -3.0 dB lorocmixlev : -3.0 dB lorosurmixlev : -3.0 dB dialnorm_Average : -31 dB dialnorm_Minimum : -31 dB dialnorm_Maximum : -31 dB Audio #2 ID : 4 Format : E-AC-3 JOC Format/Info : Enhanced AC-3 with Joint Object Coding Commercial name : Dolby Digital Plus with Dolby Atmos Codec ID : ec-3 Duration : 58 min 3 s Bit rate mode : Constant Bit rate : 640 kb/s Channel(s) : 6 channels Channel layout : L R C LFE Ls Rs Sampling rate : 48.0 kHz Frame rate : 31.250 FPS (1536 SPF) Compression mode : Lossy Stream size : 266 MiB (3%) Title : Original | HBO MAX Language : English Service kind : Complete Main Default : No Alternate group : 1 Tagged date : 2024-06-23 23:48:17 UTC Menus : 9 Complexity index : Not present / 16 Number of dynamic objects : 15 Bed channel count : 1 channel Bed channel configuration : LFE Dialog Normalization : -29 dB compr : -0.28 dB dmixmod : Lo/Ro ltrtcmixlev : -3.0 dB ltrtsurmixlev : -3.0 dB lorocmixlev : -3.0 dB lorosurmixlev : -3.0 dB dialnorm_Average : -29 dB dialnorm_Minimum : -29 dB dialnorm_Maximum : -29 dB Text #1 ID : 5 Format : Timed Text Muxing mode : sbtl Codec ID : tx3g Duration : 56 min 35 s Bit rate mode : Variable Bit rate : 79 b/s Frame rate : 0.305 FPS Stream size : 32.6 KiB (0%) Title : Full | Official Language : Russian Default : Yes Forced : No Alternate group : 3 Count of events : 517 Menus : 9 Text #2 ID : 6 Format : Timed Text Muxing mode : sbtl Codec ID : tx3g Duration : 56 min 51 s Bit rate mode : Variable Bit rate : 83 b/s Frame rate : 0.270 FPS Stream size : 34.7 KiB (0%) Title : Full | 7КОРОЛЕВСТВ Language : Russian Default : No Forced : No Alternate group : 3 Count of events : 584 Menus : 9 Text #3 ID : 7 Format : Timed Text Muxing mode : sbtl Codec ID : tx3g Duration : 56 min 35 s Bit rate mode : Variable Bit rate : 53 b/s Frame rate : 0.268 FPS Stream size : 22.1 KiB (0%) Title : Full | HBO MAX Language : English Default : No Forced : No Alternate group : 3 Count of events : 584 Menus : 9 Text #4 ID : 8 Format : Timed Text Muxing mode : sbtl Codec ID : tx3g Duration : 57 min 52 s Bit rate mode : Variable Bit rate : 61 b/s Frame rate : 0.339 FPS Stream size : 26.0 KiB (0%) Title : SDH | HBO MAX Language : English Service kind : Hearing Impaired Default : No Forced : No Alternate group : 3 Count of events : 797 Menus : 9 Menu #1 ID : 9 Format : Timed Text Codec ID : text Duration : 58 min 3 s Language : English Menu For : 1,3,4,5,6,7,8 00:00:00.000 : Chapter 1 00:00:06.006 : Intro 00:01:50.903 : Chapter 2 00:12:19.029 : Chapter 3 00:22:12.039 : Chapter 4 00:31:25.466 : Chapter 5 00:40:43.482 : Chapter 6 00:56:50.448 : Credits Menu #2 00:00:00.000 : Chapter 1 00:00:06.006 : Intro 00:01:50.903 : Chapter 2 00:12:19.029 : Chapter 3 00:22:12.039 : Chapter 4 00:31:25.466 : Chapter 5 00:40:43.482 : Chapter 6 00:56:50.448 : Credits
[+] Скриншоты

Всего файлов в раздаче: 3 
S02E01.A.Son.for.a.Son.2024.2160p.WEB-DL.DV-TheEqualizer.mp49.10 GB
S02E02.Rhaenyra.the.Cruel.2024.2160p.WEB-DL.DV-TheEqualizer.mp410.93 GB
S02E03.The.Burning.Mill.2024.2160p.WEB-DL.DV-TheEqualizer.mp410.42 GB

Похожие раздачи по запросу - Дом
Сегодня magnet Дом-ловушка / Accused (2023) BDRip от DoMiNo & селезень | D | Paragraph Media 1.38 GB ↑ 0 ↓ 0
Сегодня magnet Дом-ловушка / Accused (2023) BDRip 1080p от Generalfilm | D 2.73 GB ↑ 0 ↓ 0
Сегодня magnet Дом-ловушка / Accused (2023) BDRip 1080p от DoMiNo & селезень | D | Paragraph Media 4.56 GB ↑ 0 ↓ 14
Сегодня magnet Дом-ловушка / Accused (2023) BDRip-AVC от New-Team | D 1.57 GB ↑ 0 ↓ 4
Сегодня magnet Милый дом / Seuwiteuhom / Sweet Home [S01] (2020) WEB-DL 1080p | TVShows, LostFilm 30.67 GB ↑ 1 ↓ 3
Сегодня magnet Дом-ловушка / Accused (2023) BDRip-AVC от DoMiNo & селезень | D | Paragraph Media 1.41 GB ↑ 0 ↓ 2
Вчера magnet Дом-ловушка / Accused (2023) BDRip 1080p от MegaPeer | D 6.55 GB ↑ 0 ↓ 11

Комментарии


Зарегистрируйтесь чтобы добавить комментарий
Торрент клиент
byTorrent - программа для загрузки торрент-файлов.

Скачать byTorrent.exe (1,5 МБ)

Скачать byTorrent.zip (0,6 МБ)

Поддержи torrent.by
российских рублей
(300 российских рублей это 4$)

Обратная связь rss

End game ©