↑↓torrent.by
Поиск
Логин:  Регистрация
Пароль:

Урод в замке / Castle Freak (1995) BDRip 1080p | P2, P1, A

download Скачать торрент-файл   magnet Магнитная ссылка Размер: 9.19 GB Раздают: 0 Качают: 1 Добавлен: 2024-07-09 17:00
Пиры будут получены из сети DHT
Последний сидер был замечен 2024-07-09 19:44
Информация о фильме Название: Урод в замке Оригинальное название: Castle Freak Год выхода: 1995 Жанр: Ужасы, триллер Режиссер: Стюарт Гордон В ролях: Джеффри Комбс, Барбара Крэмптон, Джонатан Фуллер, Джессика Доллархайд, Массимо Саркьелли, Элизабет Каза, Лука Дзингаретти, Хелен Стёрлинг, Алессандро Себастьян Сатта, Рафаэлла Оффидани О фильме: Обычная американская семья наследует старинный замок в Италии. Однако, как только они переезжают в него, начинают происходить странные вещи — необычные звуки доносятся из подземелья, а их слепая дочь рассказывает, что ночью к ней кто-то приходит. Обнаружив два зверски изуродованных трупа, семья спешит покинуть замок, но это не так-то просто. Релиз группа: НЕВЬЯНСК Страна: США, Италия Студия: Full Moon Entertainment Продолжительность: 01:34:44 Перевод 1: Профессиональный (двухголосый закадровый) Goodtime Media Перевод 2: Профессиональный (двухголосый закадровый) Варус Видео Перевод 3: Авторский (одноголосый закадровый) Андрей Гаврилов Перевод 4: Авторский (одноголосый закадровый) Сергей Визгунов Перевод 5: Одноголосый (закадровый) Диона R5 Файл Кодек: H.264 Качество: BDRip 1080p Видео: High@L4.1, 1920x1036, 12000 Кбит/с, 23.976 fps Аудио#1: Русский (48 kHz, AC3, 2 ch, 192 Кбит/с) Goodtime Media Аудио#2: Русский (48 kHz, AC3, 2 ch, 224 Кбит/с) Варус Видео Аудио#3: Русский (48 kHz, AC3, 2 ch, 192 Кбит/с) Гаврилов Аудио#4: Русский (48 kHz, AC3, 2 ch, 192 Кбит/с) Визгунов Аудио#5: Русский (48 kHz, AC3, 2 ch, 448 Кбит/с) Диона R5 Аудио#6: Английский (48 kHz, FLAC, 2 ch, 643 Кбит/с) Субтитры: Русские, английские
[+] Доп. информацияРелиз группа: Невьянск Дорожка Goodtime Media была выкуплена лично мной. Впервые на трекере.
[+] MIGeneral Unique ID : 180268408836760523177077281709771946071 (0x879E6EC2D7EF3257B53C602C5F9B7857) Complete name : D:ТоррентCastle Freak.1995.BDRip.1080p.Infectant.mkv Format : Matroska Format version : Version 4 File size : 9.19 GiB Duration : 1 h 34 min Overall bit rate mode : Variable Overall bit rate : 13.9 Mb/s Frame rate : 23.976 FPS Movie name : Castle Freak.1995.BDRip.1080p.Infectant Encoded date : 2024-07-08 17:53:28 UTC Writing application : mkvmerge v84.0 ('Sleeper') 64-bit Writing library : libebml v1.4.5 + libmatroska v1.7.1 Video ID : 1 Format : AVC Format/Info : Advanced Video Codec Format profile : High@L4.1 Format settings : CABAC / 4 Ref Frames Format settings, CABAC : Yes Format settings, Reference fra : 4 frames Codec ID : V_MPEG4/ISO/AVC Duration : 1 h 34 min Bit rate : 12.0 Mb/s Width : 1 920 pixels Height : 1 036 pixels Display aspect ratio : 1.85:1 Frame rate mode : Constant Frame rate : 23.976 (24000/1001) FPS Color space : YUV Chroma subsampling : 4:2:0 Bit depth : 8 bits Scan type : Progressive Bits/(Pixel*Frame) : 0.252 Stream size : 7.93 GiB (86%) Title : Castle Freak (1995) Writing library : x264 core 157 r2958 57baac4 Encoding settings : cabac=1 / ref=4 / deblock=1:-1:-1 / analyse=0x3:0x113 / me=umh / subme=11 / psy=1 / psy_rd=1.00:0.15 / mixed_ref=1 / me_range=32 / chroma_me=1 / trellis=2 / 8x8dct=1 / cqm=0 / deadzone=21,11 / fast_pskip=0 / chroma_qp_offset=-3 / threads=18 / lookahead_threads=4 / sliced_threads=0 / nr=0 / decimate=1 / interlaced=0 / bluray_compat=0 / constrained_intra=0 / bframes=12 / b_pyramid=2 / b_adapt=2 / b_bias=0 / direct=3 / weightb=1 / open_gop=0 / weightp=2 / keyint=240 / keyint_min=24 / scenecut=40 / intra_refresh=0 / rc_lookahead=60 / rc=2pass / mbtree=1 / bitrate=12000 / ratetol=1.0 / qcomp=0.60 / qpmin=10 / qpmax=51 / qpstep=5 / cplxblur=20.0 / qblur=0.5 / vbv_maxrate=24000 / vbv_bufsize=24000 / nal_hrd=none / filler=0 / ip_ratio=1.40 / aq=1:1.00 Default : Yes Forced : No Color range : Limited Color primaries : BT.709 Transfer characteristics : BT.709 Matrix coefficients : BT.709 Audio #1 ID : 2 Format : AC-3 Format/Info : Audio Coding 3 Commercial name : Dolby Digital Codec ID : A_AC3 Duration : 1 h 34 min Bit rate mode : Constant Bit rate : 192 kb/s Channel(s) : 2 channels Channel layout : L R Sampling rate : 48.0 kHz Frame rate : 31.250 FPS (1536 SPF) Compression mode : Lossy Stream size : 130 MiB (1%) Title : DVO Goodtime Media Language : Russian Service kind : Complete Main Default : Yes Forced : No Dialog Normalization : -27 dB compr : -0.28 dB dialnorm_Average : -27 dB dialnorm_Minimum : -27 dB dialnorm_Maximum : -27 dB Audio #2 ID : 3 Format : AC-3 Format/Info : Audio Coding 3 Commercial name : Dolby Digital Codec ID : A_AC3 Duration : 1 h 34 min Bit rate mode : Constant Bit rate : 224 kb/s Channel(s) : 2 channels Channel layout : L R Sampling rate : 48.0 kHz Frame rate : 31.250 FPS (1536 SPF) Compression mode : Lossy Stream size : 152 MiB (2%) Title : DVO Варус Видео Language : Russian Service kind : Complete Main Default : No Forced : No Dialog Normalization : -31 dB dialnorm_Average : -31 dB dialnorm_Minimum : -31 dB dialnorm_Maximum : -31 dB Audio #3 ID : 4 Format : AC-3 Format/Info : Audio Coding 3 Commercial name : Dolby Digital Codec ID : A_AC3 Duration : 1 h 34 min Bit rate mode : Constant Bit rate : 192 kb/s Channel(s) : 2 channels Channel layout : L R Sampling rate : 48.0 kHz Frame rate : 31.250 FPS (1536 SPF) Compression mode : Lossy Stream size : 130 MiB (1%) Title : AVO Андрей Гаврилов Language : Russian Service kind : Complete Main Default : No Forced : No Dialog Normalization : -27 dB compr : -0.28 dB mixlevel : 283 dB roomtyp : Small dialnorm_Average : -27 dB dialnorm_Minimum : -27 dB dialnorm_Maximum : -27 dB Audio #4 ID : 5 Format : AC-3 Format/Info : Audio Coding 3 Commercial name : Dolby Digital Codec ID : A_AC3 Duration : 1 h 34 min Bit rate mode : Constant Bit rate : 192 kb/s Channel(s) : 2 channels Channel layout : L R Sampling rate : 48.0 kHz Frame rate : 31.250 FPS (1536 SPF) Compression mode : Lossy Stream size : 130 MiB (1%) Title : AVO Сергей Визгунов Language : Russian Service kind : Complete Main Default : No Forced : No Dialog Normalization : -27 dB compr : -0.28 dB dynrng : -19.86 dB mixlevel : 281 dB roomtyp : Small dialnorm_Average : -27 dB dialnorm_Minimum : -27 dB dialnorm_Maximum : -27 dB Audio #5 ID : 6 Format : AC-3 Format/Info : Audio Coding 3 Commercial name : Dolby Digital Codec ID : A_AC3 Duration : 1 h 34 min Bit rate mode : Constant Bit rate : 448 kb/s Channel(s) : 2 channels Channel layout : L R Sampling rate : 48.0 kHz Frame rate : 31.250 FPS (1536 SPF) Compression mode : Lossy Stream size : 304 MiB (3%) Title : VO Диона R5 Language : Russian Service kind : Complete Main Default : No Forced : No Dialog Normalization : -27 dB compr : 0.53 dB mixlevel : 85 dB roomtyp : 3 ltrtcmixlev : -3.0 dB ltrtsurmixlev : -3.0 dB lorocmixlev : -3.0 dB lorosurmixlev : -3.0 dB dialnorm_Average : -27 dB dialnorm_Minimum : -27 dB dialnorm_Maximum : -27 dB Audio #6 ID : 7 Format : FLAC Format/Info : Free Lossless Audio Codec Codec ID : A_FLAC Duration : 1 h 34 min Bit rate mode : Variable Bit rate : 643 kb/s Channel(s) : 2 channels Channel layout : L R Sampling rate : 48.0 kHz Frame rate : 11.719 FPS (4096 SPF) Bit depth : 16 bits Compression mode : Lossless Stream size : 435 MiB (5%) Writing library : libFLAC 1.2.1 (2007-09-17) Language : English Default : No Forced : No MD5 of the unencoded content : A77990BA709E7F3DE49275F6BA8AAA9C Text #1 ID : 8 Format : UTF-8 Codec ID : S_TEXT/UTF8 Codec ID/Info : UTF-8 Plain Text Duration : 1 h 25 min Bit rate : 58 b/s Frame rate : 0.142 FPS Count of elements : 733 Stream size : 36.6 KiB (0%) Language : Russian Default : No Forced : No Text #2 ID : 9 Format : UTF-8 Codec ID : S_TEXT/UTF8 Codec ID/Info : UTF-8 Plain Text Duration : 1 h 29 min Bit rate : 31 b/s Frame rate : 0.165 FPS Count of elements : 889 Stream size : 20.8 KiB (0%) Language : English Default : No Forced : No Menu 00:00:00.000 : en:00:00:00.000 00:05:03.970 : en:00:05:03.970 00:07:12.974 : en:00:07:12.974 00:10:20.995 : en:00:10:20.995 00:13:50.038 : en:00:13:50.038 00:18:18.931 : en:00:18:18.931 00:20:45.035 : en:00:20:45.035 00:26:54.988 : en:00:26:54.988 00:30:32.998 : en:00:30:32.998 00:36:07.957 : en:00:36:07.957 00:41:52.009 : en:00:41:52.009 00:47:30.931 : en:00:47:30.931 00:50:25.981 : en:00:50:25.981 00:54:53.999 : en:00:54:53.999 00:57:53.970 : en:00:57:53.970 01:00:53.024 : en:01:00:53.024 01:04:37.957 : en:01:04:37.957 01:07:01.893 : en:01:07:01.893 01:11:48.971 : en:01:11:48.971 01:15:38.951 : en:01:15:38.951 01:20:49.470 : en:01:20:49.470 01:24:13.423 : en:01:24:13.423 01:28:19.878 : en:01:28:19.878 01:31:12.926 : en:01:31:12.926
[+] Скриншоты

Всего файлов в раздаче: 1 
Castle Freak.1995.BDRip.1080p.Infectant.mkv9.19 GB

Похожие раздачи по запросу - Урод
2024-07-06 magnet Урод в замке / Castle Freak (1995) BDRip 1080p | P2, P1, A 10.55 GB ↑ 0 ↓ 0

Комментарии


Зарегистрируйтесь чтобы добавить комментарий
Торрент клиент
byTorrent - программа для загрузки торрент-файлов.

Скачать byTorrent.exe (1,5 МБ)

Скачать byTorrent.zip (0,6 МБ)

Поддержи torrent.by
российских рублей
(300 российских рублей это 4$)

Обратная связь rss

End game ©