↑↓torrent.by
Поиск
Логин:  Регистрация
Пароль:

Эбигейл / Abigail (2024) BDRip 1080p от New-Team | P

download Скачать торрент-файл   magnet Магнитная ссылка Размер: 8.74 GB Добавлен: 2024-07-09 17:00
Пиры будут получены из сети DHT
Последний сидер был замечен 2024-07-10 04:59
Эбигейл / Abigail Год выпуска: 2024 Выпущено: США, Ирландия, Канада / Project X Entertainment, Québec Production Services Tax Credit, Radio Silence Productions, Wild Atlantic Pictures Жанр: ужасы, триллер Режиссер: Мэттью Беттинелли / Matthew Bettinelli, Тайлер Джиллетт / Tyler Gillett В ролях: Мелисса Баррера, Дэн Стивенс, Алиша Вейр, Уильям Кэтлетт, Кэтрин Ньютон, Кевин Дюран, Ангус Клауд, Джанкарло Эспозито, Мэттью Гуд О фильме: Банда преступников похищает 12-летнюю балерину, дочь криминального авторитета. Спрятавшись в уединённом особняке, они ещё не догадываются, что влиятельный отец девочки — далеко не главная их проблема. Продолжительность: 01:49:32 Перевод: #1: Профессиональный (многоголосый, закадровый) | TVShows #2: Профессиональный (многоголосый закадровый) | Jaskier | 18+ Субтитры: Русские (full (stirlooo 18+)), английские (full) Раздача от : Формат: MKV Качество: BDRip 1080p Видео: MPEG-4 AVC, 1920x804, 10.2 Мбит/с, (2,40:1), 23,976 fps Аудио #1: 48 kHz, AC3 Dolby Digital, 3/2 (L,C,R,l,r) + LFE ch, ~ 384 kbps | RUS | TVShows Аудио #2: 48 kHz, AC3 Dolby Digital, 3/2 (L,C,R,l,r) + LFE ch, ~ 384 kbps | RUS | Jaskier | 18+ Аудио #3: 48 kHz, AC3 Dolby Digital, 3/2 (L,C,R,l,r) + LFE ch, ~ 448 kbps | ENG |
[+] MediaInfoОбщее Уникальный идентификатор : 148555881763488513506191042205070680271 (0x6FC2D275D25594ECB9E902122CA060CF) Полное имя : D:TorrentsAbigail.2024.BDRip.1080p_от New-Team.mkv Формат : Matroska Версия формата : Version 4 Размер файла : 8,74 Гбайт Продолжительность : 1 ч. 49 м. Общий поток : 11,4 Мбит/сек Название фильма : Abigail.2024.BDRip.1080p_от New-Team Дата кодирования : UTC 2024-07-09 08:27:38 Программа кодирования : mkvmerge v79.0 ('Funeral Pyres') 64-bit Библиотека кодирования : libebml v1.4.4 + libmatroska v1.7.1 Видео Идентификатор : 1 Формат : AVC Формат/Информация : Advanced Video Codec Профиль формата : High@L4.1 Настройки формата : CABAC / 5 Ref Frames Параметр CABAC формата : Да Параметр RefFrames формата : 5 кадров Идентификатор кодека : V_MPEG4/ISO/AVC Продолжительность : 1 ч. 49 м. Битрейт : 10,2 Мбит/сек Ширина : 1 920 пикселей Высота : 804 пикселя Соотношение сторон : 2,40:1 Режим частоты кадров : Постоянный Частота кадров : 23,976 (24000/1001) кадра/сек Цветовое пространство : YUV Субдискретизация насыщенности : 4:2:0 Битовая глубина : 8 бит Тип развёртки : Прогрессивная Бит/(Пиксели*Кадры) : 0.276 Размер потока : 7,80 Гбайт (89%) Библиотека кодирования : x264 core 164 r3156+57M NewTeam t_mod_New Настройки программы : cabac=1 / ref=5 / deblock=1:-3:-3 / analyse=0x3:0x133 / me=umh / subme=10 / psy=1 / fade_compensate=0.00 / psy_rd=1.00:0.01 / mixed_ref=1 / me_range=48 / chroma_me=1 / trellis=2 / 8x8dct=1 / cqm=0 / deadzone=21,11 / fast_pskip=0 / chroma_qp_offset=-3 / threads=18 / lookahead_threads=4 / sliced_threads=0 / nr=0 / decimate=0 / interlaced=0 / bluray_compat=0 / constrained_intra=0 / fgo=0 / bframes=10 / b_pyramid=2 / b_adapt=2 / b_bias=0 / direct=3 / weightb=1 / open_gop=0 / weightp=2 / keyint=240 / keyint_min=23 / scenecut=40 / intra_refresh=0 / rc_lookahead=60 / rc=2pass / mbtree=0 / bitrate=10200 / ratetol=1.0 / qcomp=0.60 / qpmin=0:0:0 / qpmax=69:69:69 / qpstep=4 / cplxblur=20.0 / qblur=0.5 / vbv_maxrate=50000 / vbv_bufsize=62500 / nal_hrd=none / filler=0 / ip_ratio=1.40 / pb_ratio=1.30 / aq=1:1.00 / aq-sensitivity=10.00 / aq-factor=1.00:1.00:1.00 / aq2=0 / aq3=0 Язык : English Default : Да Forced : Нет Аудио #1 Идентификатор : 2 Формат : AC-3 Формат/Информация : Audio Coding 3 Коммерческое название : Dolby Digital Идентификатор кодека : A_AC3 Продолжительность : 1 ч. 49 м. Вид битрейта : Постоянный Битрейт : 384 Кбит/сек Каналы : 6 каналов Channel layout : L R C LFE Ls Rs Частота : 48,0 КГц Частота кадров : 31,250 кадров/сек (1536 SPF) Метод сжатия : С потерями Размер потока : 301 Мбайт (3%) Заголовок : MVO - TVShows Язык : Russian Service kind : Complete Main Default : Да Forced : Нет Аудио #2 Идентификатор : 3 Формат : AC-3 Формат/Информация : Audio Coding 3 Коммерческое название : Dolby Digital Идентификатор кодека : A_AC3 Продолжительность : 1 ч. 49 м. Вид битрейта : Постоянный Битрейт : 384 Кбит/сек Каналы : 6 каналов Channel layout : L R C LFE Ls Rs Частота : 48,0 КГц Частота кадров : 31,250 кадров/сек (1536 SPF) Метод сжатия : С потерями Размер потока : 301 Мбайт (3%) Заголовок : MVO - Jaskier | 18+ Язык : Russian Service kind : Complete Main Default : Нет Forced : Нет Аудио #3 Идентификатор : 4 Формат : AC-3 Формат/Информация : Audio Coding 3 Коммерческое название : Dolby Digital Идентификатор кодека : A_AC3 Продолжительность : 1 ч. 49 м. Вид битрейта : Постоянный Битрейт : 448 Кбит/сек Каналы : 6 каналов Channel layout : L R C LFE Ls Rs Частота : 48,0 КГц Частота кадров : 31,250 кадров/сек (1536 SPF) Метод сжатия : С потерями Размер потока : 351 Мбайт (4%) Заголовок : Original Язык : English Service kind : Complete Main Default : Нет Forced : Нет Текст #1 Идентификатор : 5 Формат : UTF-8 Идентификатор кодека : S_TEXT/UTF8 Идентификатор кодека/Информация : UTF-8 Plain Text Продолжительность : 1 ч. 45 м. Битрейт : 76 бит/сек Count of elements : 1271 Размер потока : 58,8 Кбайт (0%) Заголовок : ] Язык : Russian Default : Нет Forced : Нет Текст #2 Идентификатор : 6 Формат : UTF-8 Идентификатор кодека : S_TEXT/UTF8 Идентификатор кодека/Информация : UTF-8 Plain Text Продолжительность : 1 ч. 44 м. Битрейт : 50 бит/сек Count of elements : 1478 Размер потока : 38,8 Кбайт (0%) Заголовок : Язык : English Default : Нет Forced : Нет Меню 00:00:00.000 : en:Chapter 01 00:03:58.071 : en:Chapter 02 00:11:30.565 : en:Chapter 03 00:15:10.284 : en:Chapter 04 00:19:58.155 : en:Chapter 05 00:25:56.513 : en:Chapter 06 00:33:38.099 : en:Chapter 07 00:38:36.981 : en:Chapter 08 00:46:24.949 : en:Chapter 09 00:50:25.606 : en:Chapter 10 00:53:47.933 : en:Chapter 11 00:57:20.354 : en:Chapter 12 01:04:18.897 : en:Chapter 13 01:11:31.746 : en:Chapter 14 01:19:01.070 : en:Chapter 15 01:25:04.308 : en:Chapter 16 01:30:25.337 : en:Chapter 17 01:34:35.003 : en:Chapter 18 01:40:15.801 : en:Chapter 19 01:45:23.442 : en:Chapter 20

Всего файлов в раздаче: 1 
Abigail.2024.BDRip.1080p_от New-Team.mkv8.74 GB

Похожие раздачи по запросу - Эбигейл
2024-07-10 magnet Эбигейл / Abigail (2024) BDRip от DoMiNo & селезень | P | Jaskier 1.46 GB ↑ 0 ↓ 1
2024-07-10 magnet Эбигейл / Abigail (2024) BDRip 720p от DoMiNo & селезень | P | TVShows, Jaskier 3.99 GB ↑ 0 ↓ 0
2024-07-09 magnet Эбигейл / Abigail (2024) BDRip от New-Team | P | TVShows 1.46 GB ↑ 0 ↓ 0
2024-05-14 magnet Эбигейл / Abigail (2024) UHD WEB-DL-HEVC 2160p | 4K | HDR | Dolby Vision Profile 8 | P, P2 20.21 GB ↑ 0 ↓ 0
2024-05-13 magnet Эбигейл / Abigail (2024) WEB-DLRip-AVC от DoMiNo & селезень | P, P2 | TVShows, Jaskier, ViruseProject 1.92 GB ↑ 1 ↓ 0
2024-05-12 magnet Эбигейл / Abigail (2024) WEB-DLRip-AVC от New-Team | P 2.23 GB ↑ 0 ↓ 0
2024-05-12 magnet Эбигейл / Abigail (2024) UHD WEB-DL-HEVC 2160p | 4K | SDR | P, P2 | Jaskier, ViruseProject 12.51 GB ↑ 1 ↓ 0

Комментарии


Зарегистрируйтесь чтобы добавить комментарий
Торрент клиент
byTorrent - программа для загрузки торрент-файлов.

Скачать byTorrent.exe (1,5 МБ)

Скачать byTorrent.zip (0,6 МБ)

Поддержи torrent.by
российских рублей
(300 российских рублей это 4$)

Обратная связь rss

End game ©