↑↓torrent.by
Поиск
Логин:  Регистрация
Пароль:

Таро: Карта смерти / Tarot (2024) BDRip 1080p от MegaPeer | D

download Скачать торрент-файл   magnet Магнитная ссылка Размер: 6.48 GB Раздают: 1 Качают: 0 Добавлен: 2024-07-09 17:00
Пиры будут получены из сети DHT
Последний сидер был замечен сегодня в 18:13
Информация Название: Таро: Карта смерти Оригинальное название: Tarot Год выхода: 2024 Жанр: Ужасы Режиссер: Спенсер Коэн, Анна Халберг В ролях: Харриет Слейтер, Эдейн Брэдли, Джейкоб Баталон, Авантика Умберли Гонсалес, Вольфганг Новограц, Ларсен Томпсон, Олуэн Фуэре, Сунчика Миланович, Алан Уэллс Описание: Компания студентов снимает на выходные дом, где находит старинную колоду карт Таро. Погадав на них, уже на следующий день ребята обнаруживают, что предсказания начинают сбываться, а вскоре за каждым из них придут старшие арканы, выпавшие последними. Страна: США, Сербия Студия: Alloy Entertainment, Capstone Pictures, Ground Control, Screen Gems, Serbia Film Commission Продолжительность: 01:31:58 Перевод: Профессиональный (полное дублирование) | MovieDalen Файл Качество: BDRip 1080p Исходник: Tarot.2024.BluRay.1080p.AVC.DTS-HD.MA5.1-Parker Формат: MKV Кодек: MPEG-4 AVC Видео: 1920x804 (2.40:1), 23.976 fps, MPEG-4 AVC ~ 9067 Kbps avg, 0.245 bit/pixel Аудио: AC3, 48 kHz, 6 ch, ~384.00 kbps avg | русский | DUB | Аудио: AC3, 48 kHz, 6 ch, ~640.00 kbps avg | английский | Субтитры: Русские (Forced, Full), Английские (Full, SDH)
[+] Инфо-файлОбщее Уникальный идентификатор : 190425330068187002778742085147749569675 (0x8F4295A412D7677A8417A73BC6DCD48B) Полное имя : Tarot.2024.1080p.BluRay.DD.5.1.x264-MegaPeer.mkv Формат : Matroska Версия формата : Version 4 Размер файла : 6,48 Гбайт Продолжительность : 1 ч. 31 мин. Общий битрейт : 10,1 Мбит/сек Частота кадров : 23,976 кадра/сек Название фильма : Таро: Карта смерти / Tarot (2024) от stillet@MegaPeer Дата кодирования : 2024-07-09 08:52:44 UTC Программа кодирования : mkvmerge v15.0.0 ('Duel with the Devil') 64-bit Библиотека кодирования : libebml v1.3.5 + libmatroska v1.4.5 Обложка : Yes Attachments : cover.jpg Видео Идентификатор : 1 Формат : AVC Формат/Информация : Advanced Video Codec Профиль формата : High@L4.1 Настройки формата : CABAC / 5 Ref Frames Параметр CABAC формата : Да Параметр RefFrames формата : 5 кадров Идентификатор кодека : V_MPEG4/ISO/AVC Продолжительность : 1 ч. 31 мин. Битрейт : 9 067 Кбит/сек Ширина : 1 920 пикселей Высота : 804 пикселя Соотношение сторон дисплея : 2,39:1 Режим частоты кадров : Постоянный Частота кадров : 23,976 (24000/1001) кадра/сек Цветовое пространство : YUV Цветовая субдискретизация : 4:2:0 Битовая глубина : 8 бит Тип развёртки : Прогрессивная Бит/(Пиксели*Кадры) : 0.245 Размер потока : 5,82 Гбайт (90%) Библиотека кодирования : x264 core 164 r3186+62M stillet t_mod_New Параметры библиотеки кодирования : cabac=1 / ref=5 / deblock=1:-3:-3 / analyse=0x3:0x113 / me=umh / subme=10 / psy=1 / fade_compensate=0.00 / psy_rd=1.03:0.02 / mixed_ref=1 / me_range=32 / chroma_me=1 / trellis=2 / 8x8dct=1 / cqm=0 / deadzone=21,11 / fast_pskip=0 / chroma_qp_offset=-3 / threads=12 / lookahead_threads=3 / sliced_threads=0 / nr=0 / decimate=0 / interlaced=0 / bluray_compat=0 / constrained_intra=0 / fgo=0 / bframes=10 / b_pyramid=2 / b_adapt=2 / b_bias=0 / direct=3 / weightb=1 / open_gop=0 / weightp=2 / keyint=240 / keyint_min=24 / scenecut=40 / intra_refresh=0 / rc_lookahead=40 / rc=2pass / mbtree=0 / bitrate=9067 / ratetol=1.0 / qcomp=0.60 / qpmin=0:0:0 / qpmax=69:69:69 / qpstep=4 / cplxblur=20.0 / qblur=0.5 / vbv_maxrate=50000 / vbv_bufsize=62500 / nal_hrd=none / filler=0 / ip_ratio=1.40 / pb_ratio=1.30 / aq=1:1.10 / aq-sensitivity=10.00 / aq-factor=1.00:1.00:1.00 / aq2=0 / aq3=0 Язык : Английский По умолчанию : Да Принудительно : Нет Аудио #1 Идентификатор : 2 Формат : AC-3 Формат/Информация : Audio Coding 3 Коммерческое название : Dolby Digital Идентификатор кодека : A_AC3 Продолжительность : 1 ч. 31 мин. Вид битрейта : Постоянный Битрейт : 384 Кбит/сек Канал(-ы) : 6 каналов Расположение каналов : L R C LFE Ls Rs Частота дискретизации : 48,0 КГц Частота кадров : 31,250 кадров/сек (1536 SPF) Метод сжатия : С потерями Размер потока : 253 Мбайт (4%) Заголовок : DUB Язык : Русский Вид сервиса : Complete Main По умолчанию : Да Принудительно : Да AC3_metadata cmixlev : -3.0 dB surmixlev : -3 dB Аудио #2 Идентификатор : 3 Формат : AC-3 Формат/Информация : Audio Coding 3 Коммерческое название : Dolby Digital Идентификатор кодека : A_AC3 Продолжительность : 1 ч. 31 мин. Вид битрейта : Постоянный Битрейт : 640 Кбит/сек Канал(-ы) : 6 каналов Расположение каналов : L R C LFE Ls Rs Частота дискретизации : 48,0 КГц Частота кадров : 31,250 кадров/сек (1536 SPF) Метод сжатия : С потерями Размер потока : 421 Мбайт (6%) Язык : Английский Вид сервиса : Complete Main По умолчанию : Нет Принудительно : Нет AC3_metadata cmixlev : -3.0 dB surmixlev : -3 dB Текст #1 Идентификатор : 4 Формат : UTF-8 Идентификатор кодека : S_TEXT/UTF8 Идентификатор кодека/Информация : UTF-8 Plain Text Продолжительность : 1 ч. 18 мин. Битрейт : 1 бит/сек Частота кадров : 0,006 кадр/сек Число элементов : 28 Размер потока : 1,01 КиБ (0%) Заголовок : Forced Язык : Русский По умолчанию : Да Принудительно : Да Текст #2 Идентификатор : 5 Формат : UTF-8 Идентификатор кодека : S_TEXT/UTF8 Идентификатор кодека/Информация : UTF-8 Plain Text Продолжительность : 1 ч. 25 мин. Битрейт : 92 бит/сек Частота кадров : 0,216 кадр/сек Число элементов : 1109 Размер потока : 58,0 КиБ (0%) Заголовок : Full Язык : Русский По умолчанию : Нет Принудительно : Нет Текст #3 Идентификатор : 6 Формат : UTF-8 Идентификатор кодека : S_TEXT/UTF8 Идентификатор кодека/Информация : UTF-8 Plain Text Продолжительность : 1 ч. 31 мин. Битрейт : 57 бит/сек Частота кадров : 0,226 кадр/сек Число элементов : 1236 Размер потока : 38,3 КиБ (0%) Заголовок : Full Язык : Английский По умолчанию : Нет Принудительно : Нет Текст #4 Идентификатор : 7 Формат : UTF-8 Идентификатор кодека : S_TEXT/UTF8 Идентификатор кодека/Информация : UTF-8 Plain Text Продолжительность : 1 ч. 31 мин. Битрейт : 63 бит/сек Частота кадров : 0,259 кадр/сек Число элементов : 1421 Размер потока : 42,9 КиБ (0%) Заголовок : SDH Язык : Английский По умолчанию : Нет Принудительно : Нет Меню 00:00:00.000 : Chapter 01 00:04:23.930 : Chapter 02 00:10:31.588 : Chapter 03 00:16:35.159 : Chapter 04 00:21:18.818 : Chapter 05 00:27:13.839 : Chapter 06 00:34:10.757 : Chapter 07 00:39:20.608 : Chapter 08 00:43:06.166 : Chapter 09 00:50:29.943 : Chapter 10 00:56:00.815 : Chapter 11 01:00:50.771 : Chapter 12 01:04:17.269 : Chapter 13 01:08:14.965 : Chapter 14 01:13:26.109 : Chapter 15 01:23:21.578 : Chapter 16
Релиз:

Всего файлов в раздаче: 1 
Tarot.2024.1080p.BluRay.DD.5.1.x264-MegaPeer.mkv6.48 GB

Похожие раздачи по запросу - Таро
2024-07-11 magnet Таро: Карта смерти / Tarot (2024) BDRip от DoMiNo & селезень | D, P 1.46 GB ↑ 0 ↓ 1
2024-07-11 magnet Таро: Карта смерти / Tarot (2024) BDRip 720p от DoMiNo & селезень | D, P, A 3.85 GB ↑ 0 ↓ 0
2024-07-10 magnet Таро: Карта смерти / Tarot (2024) BDRip-AVC от New-Team | D, P 2.16 GB ↑ 0 ↓ 0
2024-07-09 magnet Таро: Карта смерти / Tarot (2024) BDRip от MegaPeer | D 1.46 GB ↑ 0 ↓ 0
2024-06-04 magnet Таро: Карта смерти / Tarot (2024) WEB-DLRip от New-Team | D 1.46 GB ↑ 0 ↓ 0
2024-06-04 magnet Таро: Карта смерти / Tarot (2024) WEB-DL 1080p от New-Team | D, P, A 4.86 GB ↑ 0 ↓ 1
2024-06-04 magnet Таро: Карта смерти / Tarot (2024) WEB-DLRip-AVC | D, P 1.73 GB ↑ 6 ↓ 1

Комментарии


Зарегистрируйтесь чтобы добавить комментарий
Торрент клиент
byTorrent - программа для загрузки торрент-файлов.

Скачать byTorrent.exe (1,5 МБ)

Скачать byTorrent.zip (0,6 МБ)

Поддержи torrent.by
российских рублей
(300 российских рублей это 4$)

Обратная связь rss

End game ©