↑↓torrent.by
Поиск
Логин:  Регистрация
Пароль:

Планета обезьян: Новое царство / Kingdom of the Planet of the Apes (2024) WEB-DLRip от DoMiNo & селезень | D | MovieDalen

download Скачать торрент-файл   magnet Магнитная ссылка Размер: 1.46 GB Добавлен: 2024-07-09 17:00
Пиры будут получены из сети DHT
Последний сидер был замечен сегодня в 14:09
Информация о фильме Название: Планета обезьян: Новое царство Оригинальное название: Kingdom of the Planet of the Apes Год выхода: 2024 Жанр: Фантастика, боевик, приключения Режиссер: Уэс Болл В ролях: Оуэн Тиг, Питер Макон, Фрейя Аллан, Кевин Дюран, Трэвис Джеффри, Уильям Х. Мэйси, Дичен Лакмэн, Ика Дэрвилл, Лидия Пекхэм, Нил Сэндилэндс О фильме: Несколько поколений после правления Цезаря. Обезьяны являются доминирующим видом, живущим в гармонии, а люди вынуждены оставаться в тени. Пока новый тиранический лидер обезьян строит свою империю, один молодой шимпанзе отправляется в путешествие, которое заставит его усомниться во всём, что он знал о прошлом, и сделать выбор, который определит будущее как обезьян, так и людей. Страна: США, Австралия Студия: 20th Century Fox Film Corporation, Fox Studios Australia, Jason T. Reed Productions, Oddball Entertainment Продолжительность: 02:24:40 Перевод: Дублированный | MovieDalen Субтитры: Русские (Forced - хардсаб) Файл Формат: AVI Качество: WEB-DLRip Исходник: Kingdom.of.the.Planet.of.the.Apes.2024.2160p.iT.WEB-DL.DDP5.1.Atmos.H.265-EDITH Видео: 720x304 at 24.000 fps, XviD 69, ~1243 kbps Аудио: AC3, 2 ch, ~192 kbps - | Русский | Формат субтитров: хардсаб ***Рип от: -=DoMiNo=-
[+] M/IGeneral Complete name : U:Kingdom.Of.The.Planet.Of.The.Apes.2024.WEB-DLRip.seleZen.avi Format : AVI Format/Info : Audio Video Interleave Format settings : BitmapInfoHeader / WaveFormatEx File size : 1.46 GiB Duration : 2 h 24 min Overall bit rate : 1 445 kb/s Frame rate : 24.000 FPS Movie name : Kingdom.Of.The.Planet.Of.The.Apes.2024.WEB-DLRip.seleZen Writing application : VirtualDubModRus 1.5.10.2 (build 2542/release) Writing library : VirtualDubMod build 2542/release Copyright : -=DoMiNo=- Video ID : 0 Format : MPEG-4 Visual Format profile : Advanced Simple@L5 Format settings : BVOP1 / Custom Matrix Format settings, BVOP : 1 Format settings, QPel : No Format settings, GMC : No warppoints Format settings, Matrix : Custom Codec ID : XVID Codec ID/Hint : XviD Duration : 2 h 24 min Bit rate : 1 243 kb/s Width : 720 pixels Height : 304 pixels Display aspect ratio : 2.39:1 Frame rate : 24.000 FPS Color space : YUV Chroma subsampling : 4:2:0 Bit depth : 8 bits Scan type : Progressive Compression mode : Lossy Bits/(Pixel*Frame) : 0.237 Stream size : 1.26 GiB (86%) Writing library : XviD 69 Audio ID : 1 Format : AC-3 Format/Info : Audio Coding 3 Commercial name : Dolby Digital Codec ID : 2000 Duration : 2 h 24 min Bit rate mode : Constant Bit rate : 192 kb/s Channel(s) : 2 channels Channel layout : L R Sampling rate : 48.0 kHz Frame rate : 31.250 FPS (1536 SPF) Compression mode : Lossy Stream size : 199 MiB (13%) Alignment : Split across interleaves Interleave, duration : 42 ms (1.00 video frame) Interleave, preload duratio : 500 ms Service kind : Complete Main Dialog Normalization : -31 dB dialnorm_Average : -31 dB dialnorm_Minimum : -31 dB dialnorm_Maximum : -31 dB
Релиз: Присоединяйся к: Кликай на баннеры.

Всего файлов в раздаче: 1 
Kingdom.Of.The.Planet.Of.The.Apes.2024.WEB-DLRip.seleZen.avi1.46 GB

Похожие раздачи по запросу - Планета
Сегодня magnet Планета обезьян: Новое царство / Kingdom of the Planet of the Apes (2024) UHD WEB-DL 2160p | 4K | Dolby Vision TV | D | MovieDalen, Red Head Sound 16.31 GB ↑ 0 ↓ 24
2024-07-12 magnet Планета обезьян: Новое царство / Kingdom of the Planet of the Apes (2024) WEB-DLRip 1080p от селезень | D, P, A 7.19 GB ↑ 2 ↓ 36
2024-07-12 magnet Планета обезьян: Новое царство / Kingdom of the Planet of the Apes (2024) WEB-DLRip от DoMiNo & селезень | P | Jaskier 1.46 GB ↑ 0 ↓ 7
2024-07-12 magnet Планета обезьян: Новое царство / Kingdom of the Planet of the Apes (2024) UHD WEB-DL 2160p | 4K | HDR | Dolby Vision Profile 8 | D, P, A 26.54 GB ↑ 4 ↓ 23
2024-07-11 magnet Планета обезьян: Новое царство / Kingdom of the Planet of the Apes (2024) WEB-DLRip 720p от DoMiNo & селезень | D, P, A 4.48 GB ↑ 0 ↓ 1
2024-07-11 magnet Планета обезьян: Новое царство / Kingdom of the Planet of the Apes (2024) WEB-DLRip-AVC от ExKinoRay | D | MovieDalen 1.07 GB ↑ 0 ↓ 2
2024-07-11 magnet Планета обезьян: Новое царство / Kingdom of the Planet of the Apes (2024) WEB-DL 1080p от New-Team | D 7.81 GB ↑ 0 ↓ 0

Комментарии


Зарегистрируйтесь чтобы добавить комментарий
Торрент клиент
byTorrent - программа для загрузки торрент-файлов.

Скачать byTorrent.exe (1,5 МБ)

Скачать byTorrent.zip (0,6 МБ)

Поддержи torrent.by
российских рублей
(300 российских рублей это 4$)

Обратная связь rss

End game ©