↑↓torrent.by
Поиск
Логин:  Регистрация
Пароль:

Домашнее обучение / Home Education (2023) WEB-DLRip-AVC | L | RGB

download Скачать торрент-файл   magnet Магнитная ссылка Размер: 1.44 GB Раздают: 1 Качают: 0 Добавлен: il68k 2024-07-09 19:21
Пиры будут получены из сети DHT
Последний сидер был замечен сегодня в 11:59
Информация о фильме Название: Домашнее обучение Оригинальное название: Home Education Год выхода: 2023 Жанр: драма, ужасы, триллер Режиссер: Андреа Ниада В ролях: Джулия Ормонд, Лидия Пейдж, Рокко Фасано, Алессандра Силипо О фильме: Девочка, получившая домашнее образование, начинает сомневаться в учениях своей властной матери, когда их убеждения подвергаются жесточайшему испытанию. Страна: Великобритания, Италия Студия: Indiana Production, BlackBox Multimedia Продолжительность: 01:40:19 Перевод: Любительский (многоголосый закадровый) | RGB Файл Формат: MKV Качество: WEB-DLRip-AVC Видео: AVC/H.264, 720x302, ~1883 Kbps, 25.000 fps Аудио 1: AC3, 48 kHz, 6 ch, 256 Kbps - Русский Субтитры: отсутствуют Семпл
[+] Скриншоты
[+] MediaInfo General Unique ID : 285061743325158560857981376057487957813 (0xD674E50E22429B41D804DDA323689F35) Complete name : E:\RGB\Home.Education.2023.WEB.MVO-RGB.mkv Format : Matroska Format version : Version 4 File size : 1.44 GiB Duration : 1 h 36 min Overall bit rate : 2 140 kb/s Frame rate : 25.000 FPS Movie name : RGB Encoded date : 2024-07-08 18:16:27 UTC Writing application : mkvmerge v82.0 ('I'm The President') 64-bit Writing library : libebml v1.4.5 + libmatroska v1.7.1 Video ID : 1 Format : AVC Format/Info : Advanced Video Codec Format profile : High@L4.1 Format settings : CABAC / 10 Ref Frames Format settings, CABAC : Yes Format settings, Reference : 10 frames Codec ID : V_MPEG4/ISO/AVC Duration : 1 h 36 min Bit rate : 1 883 kb/s Width : 720 pixels Height : 302 pixels Display aspect ratio : 2.39:1 Frame rate mode : Constant Frame rate : 25.000 FPS Color space : YUV Chroma subsampling : 4:2:0 Bit depth : 8 bits Scan type : Progressive Bits/(Pixel*Frame) : 0.346 Stream size : 1.26 GiB (88%) Title : RGB Language : English Default : Yes Forced : No Audio ID : 2 Format : AC-3 Format/Info : Audio Coding 3 Commercial name : Dolby Digital Codec ID : A_AC3 Duration : 1 h 36 min Bit rate mode : Constant Bit rate : 256 kb/s Channel(s) : 6 channels Channel layout : L R C LFE Ls Rs Sampling rate : 48.0 kHz Frame rate : 31.250 FPS (1536 SPF) Compression mode : Lossy Stream size : 176 MiB (12%) Title : MVO Language : Russian Service kind : Complete Main Default : Yes Forced : No Dialog Normalization : -27 dB compr : -0.28 dB cmixlev : -3.0 dB surmixlev : -3 dB mixlevel : 285 dB roomtyp : 3 ltrtcmixlev : -3.0 dB ltrtsurmixlev : -3.0 dB lorocmixlev : -3.0 dB lorosurmixlev : -4.5 dB dialnorm_Average : -27 dB dialnorm_Minimum : -27 dB dialnorm_Maximum : -27 dB
Релиз от: RGB

Всего файлов в раздаче: 1 
Home.Education.2023.WEB.MVO-RGB.mkv1.44 GB

Похожие раздачи по запросу - Домашнее
2024-07-10 magnet Домашнее обучение / Home Education (2023) WEB-DLRip-AVC | L | RGB 1.57 GB ↑ 3 ↓ 0
2024-07-09 magnet Домашнее обучение / Home Education (2023) WEB-DL 1080p | L | RGB 5.11 GB ↑ 9 ↓ 0

Комментарии


Зарегистрируйтесь чтобы добавить комментарий
Торрент клиент
byTorrent - программа для загрузки торрент-файлов.

Скачать byTorrent.exe (1,5 МБ)

Скачать byTorrent.zip (0,6 МБ)

Поддержи torrent.by
российских рублей
(300 российских рублей это 4$)

Обратная связь rss

End game ©