↑↓torrent.by
Поиск
Логин:  Регистрация
Пароль:

Домашнее обучение / Home Education (2023) WEB-DLRip-AVC | L | RGB

download Скачать торрент-файл   magnet Магнитная ссылка Размер: 1.57 GB Раздают: 2 Качают: 0 Добавлен: il68k 2024-07-10 01:45
Пиры будут получены из сети DHT
Последний сидер был замечен сегодня в 03:00
Информация о фильме Название: Домашнее обучение Оригинальное название: Home Education Год выхода: 2023 Жанр: драма, ужасы, триллер Режиссер: Андреа Ниада В ролях: Джулия Ормонд, Лидия Пейдж, Рокко Фасано, Алессандра Силипо О фильме: Девочка, получившая домашнее образование, начинает сомневаться в учениях своей властной матери, когда их убеждения подвергаются жесточайшему испытанию. Страна: Великобритания, Италия Студия: Indiana Production, BlackBox Multimedia Продолжительность: 01:40:19 Перевод: Любительский (многоголосый закадровый) | RGB Файл Кодек: Н.264 Качество: WEB-DLRip-AVC Видео: MPEG-4 AVC, 1476 Kbps, 1024x428 (2.39:1), 23.976 fps, 0.140 bit/pixel, High@L4.1 Звук 1: 48 kHz, AC3 Dolby Digital, 3/2 (L, C, R, l, r) + LFE ch, ~384 kbps | RGB Звук 2: 48 kHz, AC3 Dolby Digital, 3/2 (L, C, R, l, r) + LFE ch, ~384 kbps | Английский Субтитры: английские, итальянские Семпл
[+] Скриншоты
[+] MediaInfo raw : 1024x428p 1:1 @ 24000/1001 fps (cfr) x264 : using SAR=1/1 x264 : using cpu capabilities: MMX2 SSE2Fast SSSE3 SSE4.2 AVX FMA3 BMI2 AVX2 x264 : profile High, level 4.1, 4:2:0, 8-bit x264 : frame I:1107 Avg QP:14.20 size: 62833 x264 : frame P:31321 Avg QP:16.20 size: 19156 x264 : frame B:111884 Avg QP:17.89 size: 3939 x264 : consecutive B-frames: 1.5% 2.1% 3.3% 42.9% 10.0% 28.8% 3.5% 2.9% 0.8% 2.3% 0.3% 0.8% 0.2% 0.3% 0.4% x264 : mb I I16..4: 9.2% 71.3% 19.6% x264 : mb P I16..4: 0.7% 6.2% 0.7% P16..4: 37.3% 30.1% 17.7% 0.0% 0.0% skip: 7.2% x264 : mb B I16..4: 0.0% 0.2% 0.0% B16..8: 34.9% 10.0% 2.8% direct: 3.7% skip:48.4% L0:41.0% L1:46.6% BI:12.4% x264 : 8x8 transform intra:78.5% inter:47.9% x264 : direct mvs spatial:99.9% temporal:0.1% x264 : coded y, uvDC, uvAC intra: 91.7% 82.3% 67.2% inter: 18.2% 12.7% 7.4% x264 : i16 v, h, dc, p: 56% 9% 12% 24% x264 : i8 v, h, dc, ddl, ddr, vr, hd, vl, hu: 13% 8% 11% 9% 11% 12% 11% 12% 12% x264 : i4 v, h, dc, ddl, ddr, vr, hd, vl, hu: 14% 7% 5% 10% 15% 14% 12% 12% 12% x264 : i8c dc, h, v, p: 50% 20% 18% 11% x264 : Weighted P-Frames: Y:2.0% UV:0.6% x264 : ref P L0: 53.6% 8.9% 16.0% 5.1% 4.3% 2.7% 2.6% 1.1% 1.2% 0.9% 0.9% 0.7% 0.7% 0.6% 0.7% 0.0% x264 : ref B L0: 73.5% 12.1% 5.2% 2.5% 1.6% 1.3% 1.0% 0.6% 0.5% 0.5% 0.4% 0.4% 0.2% 0.1% x264 : ref B L1: 94.0% 6.0% x264 : kb/s:1475.67 x264 : encoded 144312 frames, 13.83 fps, 1475.67 kb/s =================================================================== General Unique ID: 260322414826385170585301345955375466878 (0xC3D845FCF2BCA8B0587844074B6BC97E) Complete name: D:\Domashnee.obuchenie.2023.WEB-DLRip.AVC.mkv Format: Matroska Format version: Version 4 File size: 1.57 GiB Duration: 1 h 40 min Overall bit rate: 2 245 kb/s Frame rate: 23.976 FPS Movie name: Home Education (2023) WEB-DLRip-AVC _ vitolinform Encoded date: 2024-07-09 20:34:52 UTC Writing application: mkvmerge v85.0 ('Shame For You') 64-bit Writing library: libebml v1.4.5 + libmatroska v1.7.1 Attachments: poster.jpg / log.log Video ID: 1 Format: AVC Format/Info: Advanced Video Codec Format profile: High@L4.1 Format settings: CABAC / 15 Ref Frames Format settings, CABAC: Yes Format settings, Reference frames: 15 frames Codec ID: V_MPEG4/ISO/AVC Duration: 1 h 40 min Bit rate: 1 476 kb/s Width: 1 024 pixels Height: 428 pixels Display aspect ratio: 2.39:1 Frame rate mode: Constant Frame rate: 23.976 (24000/1001) FPS Color space: YUV Chroma subsampling: 4:2:0 Bit depth: 8 bits Scan type: Progressive Bits/(Pixel*Frame): 0.140 Stream size: 1.03 GiB (66%) Title: Домашнее обучение / Home Education (2023) Writing library: x264 core 164 r3182 be4f020 Encoding settings: cabac=1 / ref=15 / deblock=1:-3:-3 / analyse=0x3:0x113 / me=umh / subme=10 / psy=1 / psy_rd=1.00:0.05 / mixed_ref=1 / me_range=32 / chroma_me=1 / trellis=2 / 8x8dct=1 / cqm=0 / deadzone=21, 11 / fast_pskip=0 / chroma_qp_offset=-3 / threads=12 / lookahead_threads=3 / sliced_threads=0 / nr=0 / decimate=0 / interlaced=0 / bluray_compat=0 / constrained_intra=0 / bframes=14 / b_pyramid=2 / b_adapt=2 / b_bias=0 / direct=3 / weightb=1 / open_gop=0 / weightp=2 / keyint=240 / keyint_min=24 / scenecut=40 / intra_refresh=0 / rc_lookahead=60 / rc=crf / mbtree=0 / crf=18.0 / qcomp=0.60 / qpmin=0 / qpmax=69 / qpstep=4 / vbv_maxrate=50000 / vbv_bufsize=62500 / crf_max=0.0 / nal_hrd=none / filler=0 / ip_ratio=1.40 / pb_ratio=1.30 / aq=1:1.00 Language: English Default: Yes Forced: No Color range: Limited Color primaries: BT.709 Transfer characteristics: BT.709 Matrix coefficients: BT.709 Audio #1 ID: 2 Format: AC-3 Format/Info: Audio Coding 3 Commercial name: Dolby Digital Codec ID: A_AC3 Duration: 1 h 40 min Bit rate mode: Constant Bit rate: 384 kb/s Channel(s): 6 channels Channel layout: L R C LFE Ls Rs Sampling rate: 48.0 kHz Frame rate: 31.250 FPS (1536 SPF) Compression mode: Lossy Stream size: 276 MiB (17%) Title: MVO | RGB Language: Russian Service kind: Complete Main Default: Yes Forced: No Audio #2 ID: 3 Format: AC-3 Format/Info: Audio Coding 3 Commercial name: Dolby Digital Codec ID: A_AC3 Duration: 1 h 40 min Bit rate mode: Constant Bit rate: 384 kb/s Channel(s): 6 channels Channel layout: L R C LFE Ls Rs Sampling rate: 48.0 kHz Frame rate: 31.250 FPS (1536 SPF) Compression mode: Lossy Stream size: 276 MiB (17%) Title: Italian Language: Italian Service kind: Complete Main Default: No Forced: No Text #1 ID: 4 Format: UTF-8 Codec ID: S_TEXT/UTF8 Codec ID/Info: UTF-8 Plain Text Duration: 1 h 31 min Bit rate: 33 b/s Frame rate: 0.143 FPS Count of elements: 783 Stream size: 22.3 KiB (0%) Title: Full Language: Italian Default: No Forced: No Text #2 ID: 5 Format: UTF-8 Codec ID: S_TEXT/UTF8 Codec ID/Info: UTF-8 Plain Text Duration: 1 h 31 min Bit rate: 31 b/s Frame rate: 0.140 FPS Count of elements: 763 Stream size: 20.9 KiB (0%) Title: Full Language: English Default: No Forced: No
Rip by vitolinform

Всего файлов в раздаче: 1 
Domashnee.obuchenie.2023.WEB-DLRip.AVC.mkv1.57 GB

Похожие раздачи по запросу - Домашнее
2024-07-09 magnet Домашнее обучение / Home Education (2023) WEB-DLRip-AVC | L | RGB 1.44 GB ↑ 2 ↓ 0
2024-07-09 magnet Домашнее обучение / Home Education (2023) WEB-DL 1080p | L | RGB 5.11 GB ↑ 5 ↓ 0

Комментарии


Зарегистрируйтесь чтобы добавить комментарий
Торрент клиент
byTorrent - программа для загрузки торрент-файлов.

Скачать byTorrent.exe (1,5 МБ)

Скачать byTorrent.zip (0,6 МБ)

Поддержи torrent.by
российских рублей
(300 российских рублей это 4$)

Обратная связь rss

End game ©