↑↓torrent.by
Поиск
Логин:  Регистрация
Пароль:

Гарфилд / The Garfield Movie (2024) UHD WEB-DL 2160p | 4K | Dolby Vision TV | D

download Скачать торрент-файл   magnet Магнитная ссылка Размер: 11.04 GB Добавлен: 2024-07-10 05:00
Пиры будут получены из сети DHT
Последний сидер был замечен 2024-07-14 13:41
ДАННЫЙ РЕЛИЗ БЕЗ HDR СЛОЯ, ТОЛЬКО ДЛЯ УСТРОЙСТВ С ПОДДЕРЖКОЙ DOLBY VISION. Если ваше устройство без поддержки DOLBY VISION, изображение будет "фиолетовое", как на первом скриншоте Название: Гарфилд Оригинальное название: The Garfield Movie Год выхода: 2024 Производство: США, Великобритания, Гонконг / Alcon Entertainment, Columbia Pictures, Double Negative Жанр: Мультфильм, фэнтези, комедия, приключения, семейный Перевод: Профессиональный дублированный Продолжительность: 01:41:00 Режиссёр: Марк Диндал В ролях: Крис Пратт, Сэмюэл Л. Джексон, Ханна Уэддингхэм, Винг Реймз, Николас Холт, Сесили Стронг, Харви Гильен, Бретт Голдстин, Бовэнь Ян, Снуп Догг, Dev Joshi, Люк Синк-Уайт, Линси Мёрелл Описание: После неожиданного воссоединения со своим давно потерянным отцом - уличным котом Виком - Гарфилд вместе с другом-псом Оди вынужден отказаться от своей идеально тепличной жизни и присоединиться к весёлому и опасному приключению. Формат: MPEG-4 Качество: WEB-DL 2160p Видео: MPEGH HEVC / ~14.2 Mbps / 3840x2072 / 0.075 Бит/(Пиксели*Кадры) / 24.000 fps (Dolby Vision, Version 1.0, Profile 5, dvhe.05.06, BL+RPU, no metadata compression) Аудио 01: E-AC-3, 6 ch, 384 kbps | Русский, DUB | MovieDalen | Аудио 02: E-AC-3, 6 ch, 384 kbps | Украинский, DUB | LeDoyen | Аудио 03: E-AC-3, 6 ch, 640 kbps | Английский | Субтитры: Русские (Forced, Full), украинские (Forced, Full), английские (Full, SDH) ДАННЫЙ РЕЛИЗ БЕЗ HDR СЛОЯ, ТОЛЬКО ДЛЯ УСТРОЙСТВ С ПОДДЕРЖКОЙ DOLBY VISION. Если ваше устройство без поддержки DOLBY VISION, изображение будет "фиолетовое", как на первом скриншоте
[+] MediainfoGeneral Format : MPEG-4 Format profile : Base Media Codec ID : isom (isom/dby1/iso2/mp41) File size : 11.0 GiB Duration : 1 h 41 min Overall bit rate mode : Variable Overall bit rate : 15.6 Mb/s Frame rate : 23.976 FPS Movie name : The Garfield Movie (2024) by TheEqualizer Tagged date : 2024-07-09 19:17:10 UTC Writing application : Lavf60.3.100 Cover : Yes Video ID : 1 Format : HEVC Format/Info : High Efficiency Video Coding Format profile : Main 10@L5@High HDR format : Dolby Vision, Version 1.0, Profile 5, dvhe.05.06, BL+RPU, no metadata compression Codec ID : hev1 Codec ID/Info : High Efficiency Video Coding Duration : 1 h 41 min Bit rate : 14.2 Mb/s Width : 3 840 pixels Height : 2 072 pixels Display aspect ratio : 1.85:1 Frame rate mode : Constant Frame rate : 23.976 (24000/1001) FPS Color space : YUV Chroma subsampling : 4:2:0 Bit depth : 10 bits Bits/(Pixel*Frame) : 0.075 Stream size : 10.0 GiB (91%) Title : The Garfield Movie Language : English Tagged date : 2024-07-09 19:17:10 UTC Menus : 12 Codec configuration box : hvcC+dvcC Audio #1 ID : 3 Format : E-AC-3 Format/Info : Enhanced AC-3 Commercial name : Dolby Digital Plus Codec ID : ec-3 Duration : 1 h 40 min Bit rate mode : Constant Bit rate : 384 kb/s Channel(s) : 6 channels Channel layout : L R C LFE Ls Rs Sampling rate : 48.0 kHz Frame rate : 31.250 FPS (1536 SPF) Compression mode : Lossy Stream size : 277 MiB (2%) Title : DUB | MovieDalen Language : Russian Service kind : Complete Main Default : Yes Alternate group : 1 Tagged date : 2024-07-09 19:17:10 UTC Menus : 12 Dialog Normalization : -20 dB compr : 0.53 dB dialnorm_Average : -20 dB dialnorm_Minimum : -20 dB dialnorm_Maximum : -20 dB Audio #2 ID : 4 Format : E-AC-3 Format/Info : Enhanced AC-3 Commercial name : Dolby Digital Plus Codec ID : ec-3 Duration : 1 h 40 min Bit rate mode : Constant Bit rate : 384 kb/s Channel(s) : 6 channels Channel layout : L R C LFE Ls Rs Sampling rate : 48.0 kHz Frame rate : 31.250 FPS (1536 SPF) Compression mode : Lossy Stream size : 277 MiB (2%) Title : DUB | LeDoyen Language : Ukrainian Service kind : Complete Main Default : No Alternate group : 1 Tagged date : 2024-07-09 19:17:10 UTC Menus : 12 Dialog Normalization : -20 dB compr : 0.53 dB dialnorm_Average : -20 dB dialnorm_Minimum : -20 dB dialnorm_Maximum : -20 dB Audio #3 ID : 5 Format : E-AC-3 Format/Info : Enhanced AC-3 Commercial name : Dolby Digital Plus Codec ID : ec-3 Duration : 1 h 40 min Bit rate mode : Constant Bit rate : 640 kb/s Channel(s) : 6 channels Channel layout : L R C LFE Ls Rs Sampling rate : 48.0 kHz Frame rate : 31.250 FPS (1536 SPF) Compression mode : Lossy Stream size : 462 MiB (4%) Title : Original | Amazon Language : English Service kind : Complete Main Default : No Alternate group : 1 Tagged date : 2024-07-09 19:17:10 UTC Menus : 12 Dialog Normalization : -31 dB compr : -0.28 dB dialnorm_Average : -31 dB dialnorm_Minimum : -31 dB dialnorm_Maximum : -31 dB Text #1 ID : 6 Format : Timed Text Muxing mode : sbtl Codec ID : tx3g Duration : 1 h 40 min Bit rate mode : Variable Bit rate : 5 b/s Frame rate : 0.070 FPS Stream size : 3.53 KiB (0%) Title : Forced | Amazon Language : Russian Default : Yes Forced : Yes / No Alternate group : 3 Count of events : 210 Menus : 12 Text #2 ID : 7 Format : Timed Text Muxing mode : sbtl Codec ID : tx3g Duration : 1 h 40 min Bit rate mode : Variable Bit rate : 113 b/s Frame rate : 0.486 FPS Stream size : 83.4 KiB (0%) Title : Full | Amazon Language : Russian Service kind : Dubbed Default : No Forced : No Alternate group : 3 Count of events : 1470 Menus : 12 Text #3 ID : 8 Format : Timed Text Muxing mode : sbtl Codec ID : tx3g Duration : 1 h 40 min Bit rate mode : Variable Bit rate : 4 b/s Frame rate : 0.065 FPS Stream size : 2.93 KiB (0%) Title : Forced | Amazon Language : Ukrainian Default : No Forced : No Alternate group : 3 Count of events : 195 Menus : 12 Text #4 ID : 9 Format : Timed Text Muxing mode : sbtl Codec ID : tx3g Duration : 1 h 40 min Bit rate mode : Variable Bit rate : 98 b/s Frame rate : 0.465 FPS Stream size : 72.3 KiB (0%) Title : Full | Amazon Language : Ukrainian Service kind : Dubbed Default : No Forced : No Alternate group : 3 Count of events : 1407 Menus : 12 Text #5 ID : 10 Format : Timed Text Muxing mode : sbtl Codec ID : tx3g Duration : 1 h 39 min Bit rate mode : Variable Bit rate : 81 b/s Frame rate : 0.614 FPS Stream size : 59.3 KiB (0%) Title : Full | Amazon Language : English Default : No Forced : No Alternate group : 3 Count of events : 1841 Menus : 12 Text #6 ID : 11 Format : Timed Text Muxing mode : sbtl Codec ID : tx3g Duration : 1 h 39 min Bit rate mode : Variable Bit rate : 81 b/s Frame rate : 0.614 FPS Stream size : 59.3 KiB (0%) Title : SDH | Amazon Language : English Service kind : Hearing Impaired Default : No Forced : No Alternate group : 3 Count of events : 1841 Menus : 12 Menu #1 ID : 12 Format : Timed Text Codec ID : text Duration : 1 h 41 min Language : English Bit rate mode : CBR Menu For : 1,3,4,5,6,7,8,9,10,11 00:00:00.000 : Chapter 01 00:04:59.424 : Chapter 02 00:12:21.157 : Chapter 03 00:17:37.223 : Chapter 04 00:23:54.517 : Chapter 05 00:27:57.093 : Chapter 06 00:36:30.357 : Chapter 07 00:42:51.446 : Chapter 08 00:49:45.485 : Chapter 09 00:53:52.857 : Chapter 10 00:59:21.478 : Chapter 11 01:06:42.669 : Chapter 12 01:11:20.697 : Chapter 13 01:18:50.730 : Chapter 14 01:25:20.412 : Chapter 15 01:31:41.543 : Chapter 16 Bit rate mode : Constant Menu #2 00:00:00.000 : Chapter 01 00:04:59.424 : Chapter 02 00:12:21.157 : Chapter 03 00:17:37.223 : Chapter 04 00:23:54.517 : Chapter 05 00:27:57.093 : Chapter 06 00:36:30.357 : Chapter 07 00:42:51.446 : Chapter 08 00:49:45.485 : Chapter 09 00:53:52.857 : Chapter 10 00:59:21.478 : Chapter 11 01:06:42.669 : Chapter 12 01:11:20.697 : Chapter 13 01:18:50.730 : Chapter 14 01:25:20.412 : Chapter 15 01:31:41.543 : Chapter 16
[+] Скриншоты

Всего файлов в раздаче: 1 
The.Garfield.Movie.2024.2160p.WEB-DL.DV-TheEqualizer.mp411.04 GB

Похожие раздачи по запросу - Гарфилд
2024-07-19 magnet Гарфилд / The Garfield Movie (2024) WEB-DL 1080p | D, P | MovieDalen, Red Head Sound, TVShows 7.19 GB ↑ 0 ↓ 1
2024-07-16 magnet Гарфилд / Гарфилд в кино / The Garfield Movie (2024) WEB-DLRip от DoMiNo & селезень | D | MovieDalen, Red Head Sound 1.49 GB ↑ 0 ↓ 5
2024-07-15 magnet Гарфилд / The Garfield Movie (2024) WEB-DL 720p от селезень | D, P | MovieDalen, Red Head Sound, TVShows 3.79 GB ↑ 0 ↓ 12
2024-07-15 magnet Гарфилд / The Garfield Movie (2024) WEB-DL 1080p | D, P | MovieDalen, Red Head Sound, TVShows 7.18 GB ↑ 0 ↓ 3
2024-07-13 magnet Гарфилд / The Garfield Movie (2024) WEB-DLRip-AVC от ExKinoRay | D | MovieDalen 745.71 MB ↑ 0 ↓ 0
2024-07-13 magnet Гарфилд / The Garfield Movie (2024) UHD WEB-DL 2160p | 4K | Dolby Vision TV | D | MovieDalen, Red Head Sound 11.18 GB ↑ 0 ↓ 1
2024-07-12 magnet Гарфилд / The Garfield Movie (2024) WEB-DLRip-AVC | КПК | D | MovieDalen 500.41 MB ↑ 0 ↓ 0

Комментарии


Зарегистрируйтесь чтобы добавить комментарий
Торрент клиент
byTorrent - программа для загрузки торрент-файлов.

Скачать byTorrent.exe (1,5 МБ)

Скачать byTorrent.zip (0,6 МБ)

Поддержи torrent.by
российских рублей
(300 российских рублей это 4$)

Обратная связь rss

End game ©