↑↓torrent.by
Поиск
Логин:  Регистрация
Пароль:

Сын / The Son (2022) BDRip 720p от DoMiNo & селезень | D

download Скачать торрент-файл   magnet Магнитная ссылка Размер: 3.62 GB Добавлен: 2024-07-10 05:00
Пиры будут получены из сети DHT
Последний сидер был замечен 2024-07-11 21:59
Информация о фильме Название: Сын Оригинальное название: The Son Жанр: драма Режиссер: Флориан Зеллер Продюсер: Эйн Каннинг, Джоэнна Лори, Эмиль Шерман Актеры: Хью Джекман, Лора Дерн, Ванесса Кирби, Зен МакГрат, Энтони Хопкинс, Felix Goddard, Max Goddard, Шин-Фэй Чен, Уильям Хоуп, Нэнси Болдуин Описание: Нью-Йорк. Питер переживает напряженный период отношений с его новой партнершей Бет и их маленьким ребенком. Ситуация осложняется, когда появляется его бывшая жена с сыном-подростком Николасом. Тот встревожен, отстранен и зол, он месяцами прогуливает школу. Питер стремится быть хорошим отцом, пытаясь помочь своему сыну в обретении моментов семейного счастья. Но тяжесть состояния Николаса ставит семью на опасный курс. Производство: Великобритания, Франция / Film4, Orange Studio, See-Saw Films, Cine@, Embankment Films, Neddy Dean Productions Продолжительность: 02:02:44 Перевод: Профессиональный (полное дублирование) | Paragraph Media Субтитры: Русские, Английские Файл Формат: Matroska Качество: BDRip 720p Видео: 1280x536 at 23.976 fps, x264@L4.1, ~2938 kbps Аудио 1: AC3, 6 ch, ~448 kbps - | Русский | | Dub Аудио 2: E-AC3, 6 ch, ~448 kbps - | Русский | | Dub Аудио 3: AC3, 6 ch, ~384 kbps - | Английский | | Original Формат субтитров: softsub (SRT) ***Рип от: -=DoMiNo=-
[+] M/Ix264 : frame I:1129 Avg QP:13.29 size: 90133 x264 : frame P:32579 Avg QP:14.78 size: 32716 x264 : frame B:142870 Avg QP:16.76 size: 10759 General Unique ID : 194458662728419095260211829733754713705 (0x924B604B540051B1A90258D0A340B669) Complete name : H:The.Son.2022.BDRip.720p.x264.seleZen.mkv Format : Matroska Format version : Version 4 File size : 3.62 GiB Duration : 2 h 2 min Overall bit rate : 4 219 kb/s Movie name : The.Son.2022.BDRip.720p.x264.seleZen Encoded date : UTC 2023-03-26 13:40:07 Writing application : mkvmerge v74.0.0 ('You Oughta Know') 64-bit Writing library : libebml v1.4.4 + libmatroska v1.7.1 Cover : Yes Attachments : cover.jpg / small_cover.jpg Video ID : 1 Format : AVC Format/Info : Advanced Video Codec Format profile : High@L4.1 Format settings : CABAC / 12 Ref Frames Format settings, CABAC : Yes Format settings, Reference : 12 frames Codec ID : V_MPEG4/ISO/AVC Duration : 2 h 2 min Bit rate : 2 938 kb/s Width : 1 280 pixels Height : 536 pixels Display aspect ratio : 2.40:1 Frame rate mode : Constant Frame rate : 23.976 (24000/1001) FPS Color space : YUV Chroma subsampling : 4:2:0 Bit depth : 8 bits Scan type : Progressive Bits/(Pixel*Frame) : 0.179 Stream size : 2.52 GiB (70%) Title : -=DoMiNo=- Writing library : x264 core 164 r3106+55M 24adf88 t_mod_New | by -=DoMiNo=- | X86_64] Encoding settings : cabac=1 / ref=12 / deblock=1:-3:-3 / analyse=0x3:0x133 / me=umh / subme=10 / psy=1 / fade_compensate=0.00 / psy_rd=1.02:0.03 / mixed_ref=1 / me_range=32 / chroma_me=1 / trellis=2 / 8x8dct=1 / cqm=0 / deadzone=21,11 / fast_pskip=0 / chroma_qp_offset=-3 / threads=17 / lookahead_threads=4 / sliced_threads=0 / nr=0 / decimate=1 / interlaced=0 / bluray_compat=0 / constrained_intra=0 / fgo=0 / bframes=10 / b_pyramid=2 / b_adapt=2 / b_bias=0 / direct=3 / weightb=1 / open_gop=0 / weightp=2 / keyint=240 / keyint_min=23 / scenecut=40 / intra_refresh=0 / rc_lookahead=60 / rc=crf / mbtree=0 / crf=17.3000 / qcomp=0.60 / qpmin=0:0:0 / qpmax=69:69:69 / qpstep=4 / vbv_maxrate=50000 / vbv_bufsize=62500 / crf_max=0.0 / nal_hrd=none / filler=0 / ip_ratio=1.35 / pb_ratio=1.25 / aq=3:0.90 / aq-sensitivity=10.00 / aq-factor=1.00:1.00:1.00 / aq2=0 / aq3=0 Language : English Default : Yes Forced : No Audio #1 ID : 2 Format : AC-3 Format/Info : Audio Coding 3 Commercial name : Dolby Digital Codec ID : A_AC3 Duration : 2 h 2 min Bit rate mode : Constant Bit rate : 448 kb/s Channel(s) : 6 channels Channel layout : L R C LFE Ls Rs Sampling rate : 48.0 kHz Frame rate : 31.250 FPS (1536 SPF) Compression mode : Lossy Stream size : 394 MiB (11%) Title : Dub Language : Russian Service kind : Complete Main Default : Yes Forced : Yes Audio #2 ID : 3 Format : E-AC-3 Format/Info : Enhanced AC-3 Commercial name : Dolby Digital Plus Codec ID : A_EAC3 Duration : 2 h 2 min Bit rate mode : Constant Bit rate : 448 kb/s Channel(s) : 6 channels Channel layout : L R C LFE Ls Rs Sampling rate : 48.0 kHz Frame rate : 31.250 FPS (1536 SPF) Compression mode : Lossy Stream size : 394 MiB (11%) Title : Dub Language : Russian Service kind : Complete Main Default : No Forced : No Audio #3 ID : 4 Format : AC-3 Format/Info : Audio Coding 3 Commercial name : Dolby Digital Codec ID : A_AC3 Duration : 2 h 2 min Bit rate mode : Constant Bit rate : 384 kb/s Channel(s) : 6 channels Channel layout : L R C LFE Ls Rs Sampling rate : 48.0 kHz Frame rate : 31.250 FPS (1536 SPF) Compression mode : Lossy Stream size : 337 MiB (9%) Title : Original Language : English Service kind : Complete Main Default : No Forced : No Text #1 ID : 5 Format : UTF-8 Codec ID : S_TEXT/UTF8 Codec ID/Info : UTF-8 Plain Text Duration : 1 h 53 min Bit rate : 91 b/s Frame rate : 0.242 FPS Count of elements : 1650 Stream size : 75.9 KiB (0%) Title : Full Language : Russian Default : No Forced : No Text #2 ID : 6 Format : UTF-8 Codec ID : S_TEXT/UTF8 Codec ID/Info : UTF-8 Plain Text Duration : 1 h 53 min Bit rate : 63 b/s Frame rate : 0.238 FPS Count of elements : 1617 Stream size : 52.7 KiB (0%) Title : Full Language : English Default : No Forced : No Menu 00:00:00.000 : en:Chapter 01 00:10:36.511 : en:Chapter 02 00:17:29.799 : en:Chapter 03 00:25:04.420 : en:Chapter 04 00:31:01.902 : en:Chapter 05 00:38:28.598 : en:Chapter 06 00:45:10.541 : en:Chapter 07 00:52:10.794 : en:Chapter 08 00:59:21.558 : en:Chapter 09 01:04:55.809 : en:Chapter 10 01:09:53.356 : en:Chapter 11 01:17:20.135 : en:Chapter 12 01:24:49.001 : en:Chapter 13 01:31:22.602 : en:Chapter 14 01:39:57.158 : en:Chapter 15 01:48:22.371 : en:Chapter 16 01:58:17.507 : en:Chapter 17
Релиз: Присоединяйся к: Кликай на баннеры.

Всего файлов в раздаче: 1 
The.Son.2022.BDRip.720p.x264.seleZen.mkv3.62 GB

Похожие раздачи по запросу - Сын
2024-07-10 magnet Сын / The Son (2022) BDRip-AVC от DoMiNo & селезень | D 1.46 GB ↑ 0 ↓ 0
2024-07-05 magnet Михаил Ланцов - Цикл «Сын Петра» [7 книг] (2023-2024) FB2 42.90 MB ↑ 0 ↓ 0
2024-07-05 magnet Михаил Ланцов - Сын Петра 05. Ветер перемен (2024) МР3 552.49 MB ↑ 0 ↓ 0
2024-07-05 magnet Михаил Ланцов - Сын Петра 06. Треск штанов (2024) МР3 1.87 GB ↑ 0 ↓ 0
2024-07-05 magnet Михаил Ланцов - Сын Петра 01. Бесенок (2024) МР3 490.73 MB ↑ 0 ↓ 0
2024-07-05 magnet Михаил Ланцов - Сын Петра 03. Шведский стол (2024) МР3 551.39 MB ↑ 0 ↓ 0
2024-07-05 magnet Михаил Ланцов - Сын Петра 04. Потоп (2024) МР3 537.61 MB ↑ 0 ↓ 0

Комментарии


Зарегистрируйтесь чтобы добавить комментарий
Торрент клиент
byTorrent - программа для загрузки торрент-файлов.

Скачать byTorrent.exe (1,5 МБ)

Скачать byTorrent.zip (0,6 МБ)

Поддержи torrent.by
российских рублей
(300 российских рублей это 4$)

Обратная связь rss

End game ©