↑↓torrent.by
Поиск
Логин:  Регистрация
Пароль:

Таро: Карта смерти / Tarot (2024) BDRip-AVC от New-Team | D, P

download Скачать торрент-файл   magnet Магнитная ссылка Размер: 2.16 GB Добавлен: 2024-07-10 05:00
Пиры будут получены из сети DHT
Последний сидер был замечен 2024-07-10 05:00
Таро: Карта смерти / Tarot Год выпуска: 2024 Выпущено: США, Сербия, Alloy Entertainment, Capstone Pictures, Ground Control, Screen Gems Жанр: Ужасы Режиссер: Спенсер Коэн / Spenser Cohen, Анна Халберг / Anna Halberg В ролях: Харриет Слейтер, Эдейн Брэдли, Джейкоб Баталон, Авантика, Умберли Гонсалес, Вольфганг Новограц, Ларсен Томпсон, Олуэн Фуэре, Сунчика Миланович, Алан Уэллс, Анна Халберг, Кевин Корнуолл, Джосс Картер, Джеймс Суонтон О фильме: Когда компания друзей безрассудно нарушает священное правило гадания на Таро — никогда не использовать чужую колоду — они неосознанно высвобождают зло, запертое в проклятых картах. Один за другим они оказываются лицом к лицу с судьбой и вступают в гонку со смертью, чтобы избежать будущего, предсказанного в их гаданиях. Продолжительность: 01:31:57 Перевод: #1: Профессиональный (полное дублирование) | MovieDalen #2: Профессиональный (многоголосый, закадровый) | HDRezka Studio Субтитры: Русские (forced, full), английские. Раздача от : Формат: MKV Качество: BDRip-AVC Видео: MPEG-4 AVC, (2,40:1), 1024x428, 2335 Кбит/с, 23,976 fps Аудио #1: 48 kHz, AC3 Dolby Digital, 3/2 (L,C,R,l,r) + LFE ch, ~ 384 kbps | RUS | DUB Аудио #2: 48 kHz, AC3 Dolby Digital, 2/0 (L,R) ch, ~ 192 kbps | RUS | MVO Аудио #3: 48 kHz, AC3 Dolby Digital, 3/2 (L,C,R,l,r) + LFE ch, ~ 448 kbps | ENG |
[+] MediaInfoОбщее Уникальный идентификатор : 335384584474290708360541116945239371082 (0xFC50B8AE7D2E717F3255FC25B00FED4A) Полное имя : D:TorrentsTarot.2024.BDRip-AVC_от New-Team.mkv Формат : Matroska Версия формата : Version 4 Размер файла : 2,16 Гбайт Продолжительность : 1 ч. 31 м. Общий поток : 3 361 Кбит/сек Название фильма : Tarot.2024.BDRip-AVC_от New-Team Дата кодирования : UTC 2024-07-09 15:45:50 Программа кодирования : mkvmerge v79.0 ('Funeral Pyres') 64-bit Библиотека кодирования : libebml v1.4.4 + libmatroska v1.7.1 Видео Идентификатор : 1 Формат : AVC Формат/Информация : Advanced Video Codec Профиль формата : High@L4.1 Настройки формата : CABAC / 14 Ref Frames Параметр CABAC формата : Да Параметр RefFrames формата : 14 кадров Идентификатор кодека : V_MPEG4/ISO/AVC Продолжительность : 1 ч. 31 м. Битрейт : 2 335 Кбит/сек Ширина : 1 024 пикселя Высота : 428 пикселей Соотношение сторон : 2,40:1 Режим частоты кадров : Постоянный Частота кадров : 23,976 (24000/1001) кадра/сек Цветовое пространство : YUV Субдискретизация насыщенности : 4:2:0 Битовая глубина : 8 бит Тип развёртки : Прогрессивная Бит/(Пиксели*Кадры) : 0.222 Размер потока : 1,50 Гбайт (69%) Библиотека кодирования : x264 core 164 r3156+57M NewTeam t_mod_New Настройки программы : cabac=1 / ref=14 / deblock=1:-3:-2 / analyse=0x3:0x133 / me=umh / subme=10 / psy=1 / fade_compensate=0.00 / psy_rd=1.03:0.06 / mixed_ref=1 / me_range=32 / chroma_me=1 / trellis=2 / 8x8dct=1 / cqm=0 / deadzone=21,11 / fast_pskip=0 / chroma_qp_offset=-3 / threads=13 / lookahead_threads=3 / sliced_threads=0 / nr=0 / decimate=0 / interlaced=0 / bluray_compat=0 / constrained_intra=0 / fgo=0 / bframes=12 / b_pyramid=2 / b_adapt=2 / b_bias=0 / direct=3 / weightb=1 / open_gop=0 / weightp=2 / keyint=240 / keyint_min=23 / scenecut=40 / intra_refresh=0 / rc_lookahead=60 / rc=2pass / mbtree=0 / bitrate=2335 / ratetol=1.0 / qcomp=0.60 / qpmin=0:0:0 / qpmax=69:69:69 / qpstep=5 / cplxblur=20.0 / qblur=0.5 / vbv_maxrate=50000 / vbv_bufsize=62500 / nal_hrd=none / filler=0 / ip_ratio=1.40 / pb_ratio=1.30 / aq=1:1.00 / aq-sensitivity=10.00 / aq-factor=1.00:1.00:1.00 / aq2=0 / aq3=0 Язык : English Default : Да Forced : Нет Аудио #1 Идентификатор : 2 Формат : AC-3 Формат/Информация : Audio Coding 3 Коммерческое название : Dolby Digital Идентификатор кодека : A_AC3 Продолжительность : 1 ч. 31 м. Вид битрейта : Постоянный Битрейт : 384 Кбит/сек Каналы : 6 каналов Channel layout : L R C LFE Ls Rs Частота : 48,0 КГц Частота кадров : 31,250 кадров/сек (1536 SPF) Метод сжатия : С потерями Размер потока : 253 Мбайт (11%) Заголовок : DUB - MovieDalen Язык : Russian Service kind : Complete Main Default : Да Forced : Нет Аудио #2 Идентификатор : 3 Формат : AC-3 Формат/Информация : Audio Coding 3 Коммерческое название : Dolby Digital Идентификатор кодека : A_AC3 Продолжительность : 1 ч. 31 м. Вид битрейта : Постоянный Битрейт : 192 Кбит/сек Каналы : 2 канала Channel layout : L R Частота : 48,0 КГц Частота кадров : 31,250 кадров/сек (1536 SPF) Метод сжатия : С потерями Размер потока : 126 Мбайт (6%) Заголовок : MVO - HDRezka Studio Язык : Russian Service kind : Complete Main Default : Нет Forced : Нет Аудио #3 Идентификатор : 4 Формат : AC-3 Формат/Информация : Audio Coding 3 Коммерческое название : Dolby Digital Идентификатор кодека : A_AC3 Продолжительность : 1 ч. 31 м. Вид битрейта : Постоянный Битрейт : 448 Кбит/сек Каналы : 6 каналов Channel layout : L R C LFE Ls Rs Частота : 48,0 КГц Частота кадров : 31,250 кадров/сек (1536 SPF) Метод сжатия : С потерями Размер потока : 295 Мбайт (13%) Заголовок : Original Язык : English Service kind : Complete Main Default : Нет Forced : Нет Текст #1 Идентификатор : 5 Формат : UTF-8 Идентификатор кодека : S_TEXT/UTF8 Идентификатор кодека/Информация : UTF-8 Plain Text Продолжительность : 1 ч. 18 м. Битрейт : 1 бит/сек Count of elements : 28 Размер потока : 1,01 Кбайт (0%) Заголовок : Язык : Russian Default : Да Forced : Нет Текст #2 Идентификатор : 6 Формат : UTF-8 Идентификатор кодека : S_TEXT/UTF8 Идентификатор кодека/Информация : UTF-8 Plain Text Продолжительность : 1 ч. 25 м. Битрейт : 92 бит/сек Count of elements : 1109 Размер потока : 58,0 Кбайт (0%) Заголовок : Язык : Russian Default : Нет Forced : Нет Текст #3 Идентификатор : 7 Формат : UTF-8 Идентификатор кодека : S_TEXT/UTF8 Идентификатор кодека/Информация : UTF-8 Plain Text Продолжительность : 1 ч. 31 м. Битрейт : 57 бит/сек Count of elements : 1236 Размер потока : 38,3 Кбайт (0%) Заголовок : Язык : English Default : Нет Forced : Нет Меню 00:00:00.000 : en:Chapter 01 00:04:23.930 : en:Chapter 02 00:10:31.588 : en:Chapter 03 00:16:35.159 : en:Chapter 04 00:21:18.818 : en:Chapter 05 00:27:13.839 : en:Chapter 06 00:34:10.757 : en:Chapter 07 00:39:20.608 : en:Chapter 08 00:43:06.166 : en:Chapter 09 00:50:29.943 : en:Chapter 10 00:56:00.815 : en:Chapter 11 01:00:50.771 : en:Chapter 12 01:04:17.269 : en:Chapter 13 01:08:14.965 : en:Chapter 14 01:13:26.109 : en:Chapter 15 01:23:21.578 : en:Chapter 16

Всего файлов в раздаче: 1 
Tarot.2024.BDRip-AVC_от New-Team.mkv2.16 GB

Похожие раздачи по запросу - Таро
2024-07-11 magnet Таро: Карта смерти / Tarot (2024) BDRip от DoMiNo & селезень | D, P 1.46 GB ↑ 0 ↓ 0
2024-07-11 magnet Таро: Карта смерти / Tarot (2024) BDRip 720p от DoMiNo & селезень | D, P, A 3.85 GB ↑ 0 ↓ 1
2024-07-09 magnet Таро: Карта смерти / Tarot (2024) BDRip от MegaPeer | D 1.46 GB ↑ 0 ↓ 0
2024-07-09 magnet Таро: Карта смерти / Tarot (2024) BDRip 1080p от MegaPeer | D 6.48 GB ↑ 0 ↓ 0
2024-06-04 magnet Таро: Карта смерти / Tarot (2024) WEB-DLRip от New-Team | D 1.46 GB ↑ 0 ↓ 1
2024-06-04 magnet Таро: Карта смерти / Tarot (2024) WEB-DL 1080p от New-Team | D, P, A 4.86 GB ↑ 0 ↓ 0
2024-06-04 magnet Таро: Карта смерти / Tarot (2024) WEB-DLRip-AVC | D, P 1.73 GB ↑ 2 ↓ 2

Комментарии


Зарегистрируйтесь чтобы добавить комментарий
Торрент клиент
byTorrent - программа для загрузки торрент-файлов.

Скачать byTorrent.exe (1,5 МБ)

Скачать byTorrent.zip (0,6 МБ)

Поддержи torrent.by
российских рублей
(300 российских рублей это 4$)

Обратная связь rss

End game ©