↑↓torrent.by
Поиск
Логин:  Регистрация
Пароль:

Пацан против всех / Пробивний чувак / Boy Kills World (2024) BDRemux 1080p | P | UKR

download Скачать торрент-файл   magnet Магнитная ссылка Размер: 31.76 GB Добавлен: 2024-07-10 05:00
Пиры будут получены из сети DHT
Последний сидер был замечен 2024-07-10 05:00
Информация о фильме Название: Пацан против всех Оригинальное название: Boy Kills World Год выхода: 2024 Жанр: боевик, комедия Режиссер: Мориц Мор В ролях: Билл Скарсгард, Джессика Рот, Мишель Докери, Бретт Гельман, Яян Рухьян, Куинн Коуплэнд, Эндрю Кодзи, Айзейя Мустафа, Фамке Янссен, Шарлто Копли О фильме: В некоем городе власть захватила коррумпированная династия Ван Дер Кой и каждый год устраивает показательную казнь врагов режима. Именно так мальчик лишается семьи, слуха и возможности говорить и оказывается в джунглях, где отшельник по имени Шаман начинает обучать его боевым искусствам. Теперь парень живёт ради одной цели — убить Хильду Ван Дер Кой. Годы спустя, уже взрослым натренированным бойцом, он становится свидетелем очередной кровавой расправы над мирными жителями, и, не сдержавшись, бросается в бой. Страна: Германия, ЮАР, США Продолжительность: 01:50:58 Перевод: Профессиональный (многоголосый закадровый) | DniproFilm (Украинский) Файл Кодек: H.264 Качество: BDRemux 1080p Видео: AVC, 1920x1080 (16:9), 23.976 fps, 34,9 Mb/s Аудио 1: E-AC3, 48.0 kHz, 6 ch, 576 kb/s | UKR Аудио 2: AC3, 48.0 kHz, 6 ch, 576 kb/s | UKR Аудио 3: Dolby TrueHD, 48.0 kHz, 8 ch, 4147 kb/s | ENG Аудио 4: AC3, 48.0 kHz, 6 ch, 640 kb/s | ENG Субтитры: украинские (forced, full), английские (full, SDH)
[+] MIGeneral Unique ID : 272614470432556043584689560656840612026 (0xCD17A31EBF94F5A6CAD66BC47F11D8BA) Complete name : Boy Kills World (2024) BDRemux 1080p Ukr Eng .mkv Format : Matroska Format version : Version 4 File size : 31.8 GiB Duration : 1 h 50 min Overall bit rate mode : Variable Overall bit rate : 41.0 Mb/s Movie name : Boy Kills World (2024) Encoded date : UTC 2024-07-08 07:58:04 Writing application : mkvmerge v85.0 ('Shame For You') 64-bit Writing library : libebml v1.4.5 + libmatroska v1.7.1 Cover : Yes Attachments : Cover.jpg Video ID : 1 Format : AVC Format/Info : Advanced Video Codec Format profile : High@L4.1 Format settings : CABAC / 4 Ref Frames Format settings, CABAC : Yes Format settings, Reference frames : 4 frames Codec ID : V_MPEG4/ISO/AVC Duration : 1 h 50 min Bit rate mode : Variable Bit rate : 34.9 Mb/s Maximum bit rate : 37.0 Mb/s Width : 1 920 pixels Height : 1 080 pixels Display aspect ratio : 16:9 Frame rate mode : Constant Frame rate : 23.976 (24000/1001) FPS Color space : YUV Chroma subsampling : 4:2:0 Bit depth : 8 bits Scan type : Progressive Bits/(Pixel*Frame) : 0.702 Stream size : 27.1 GiB (85%) Default : Yes Forced : No Audio #1 ID : 2 Format : E-AC-3 Format/Info : Enhanced AC-3 Commercial name : Dolby Digital Plus Codec ID : A_EAC3 Duration : 1 h 50 min Bit rate mode : Constant Bit rate : 576 kb/s Channel(s) : 6 channels Channel layout : L R C LFE Ls Rs Sampling rate : 48.0 kHz Frame rate : 31.250 FPS (1536 SPF) Compression mode : Lossy Stream size : 457 MiB (1%) Title : MVO (DniproFilm) Language : Ukrainian Service kind : Complete Main Default : Yes Forced : No Audio #2 ID : 3 Format : AC-3 Format/Info : Audio Coding 3 Commercial name : Dolby Digital Codec ID : A_AC3 Duration : 1 h 50 min Bit rate mode : Constant Bit rate : 576 kb/s Channel(s) : 6 channels Channel layout : L R C LFE Ls Rs Sampling rate : 48.0 kHz Frame rate : 31.250 FPS (1536 SPF) Compression mode : Lossy Stream size : 457 MiB (1%) Title : MVO (DniproFilm) Language : Ukrainian Service kind : Complete Main Default : No Forced : No Audio #3 ID : 4 Format : MLP FBA 16-ch Format/Info : Meridian Lossless Packing FBA with 16-channel presentation Commercial name : Dolby TrueHD with Dolby Atmos Codec ID : A_TRUEHD Duration : 1 h 50 min Bit rate mode : Variable Bit rate : 4 147 kb/s Maximum bit rate : 7 029 kb/s Channel(s) : 8 channels Channel layout : L R C LFE Ls Rs Lb Rb Sampling rate : 48.0 kHz Frame rate : 1 200.000 FPS (40 SPF) Bit depth : 24 bits Compression mode : Lossless Stream size : 3.21 GiB (10%) Title : Original Language : English Default : No Forced : No Number of dynamic objects : 11 Bed channel count : 1 channel Bed channel configuration : LFE Audio #4 ID : 5 Format : AC-3 Format/Info : Audio Coding 3 Commercial name : Dolby Digital Codec ID : A_AC3 Duration : 1 h 50 min Bit rate mode : Constant Bit rate : 640 kb/s Channel(s) : 6 channels Channel layout : L R C LFE Ls Rs Sampling rate : 48.0 kHz Frame rate : 31.250 FPS (1536 SPF) Compression mode : Lossy Stream size : 508 MiB (2%) Title : Original Language : English Service kind : Complete Main Default : No Forced : No Text #1 ID : 6 Format : UTF-8 Codec ID : S_TEXT/UTF8 Codec ID/Info : UTF-8 Plain Text Duration : 1 h 12 min Bit rate : 0 b/s Count of elements : 10 Stream size : 222 Bytes (0%) Title : Forced Language : Ukrainian Default : Yes Forced : No Text #2 ID : 7 Format : UTF-8 Codec ID : S_TEXT/UTF8 Codec ID/Info : UTF-8 Plain Text Duration : 1 h 41 min Bit rate : 70 b/s Count of elements : 1113 Stream size : 52.8 KiB (0%) Title : Full Language : Ukrainian Default : No Forced : No Text #3 ID : 8 Format : UTF-8 Codec ID : S_TEXT/UTF8 Codec ID/Info : UTF-8 Plain Text Duration : 1 h 49 min Bit rate : 43 b/s Count of elements : 1182 Stream size : 35.2 KiB (0%) Title : Full Language : English Default : No Forced : No Text #4 ID : 9 Format : UTF-8 Codec ID : S_TEXT/UTF8 Codec ID/Info : UTF-8 Plain Text Duration : 1 h 50 min Bit rate : 61 b/s Count of elements : 1719 Stream size : 49.7 KiB (0%) Title : SDH Language : English Default : No Forced : No Text #5 ID : 10 Format : PGS Codec ID : S_HDMV/PGS Codec ID/Info : Picture based subtitle format used on BDs/HD-DVDs Duration : 1 h 50 min Bit rate : 43.8 kb/s Count of elements : 3438 Stream size : 34.5 MiB (0%) Title : SDH Language : English Default : No Forced : No Menu 00:00:00.000 : en:Chapter 01 00:03:58.655 : en:Chapter 02 00:11:56.048 : en:Chapter 03 00:20:31.772 : en:Chapter 04 00:25:01.750 : en:Chapter 05 00:35:05.394 : en:Chapter 06 00:39:49.512 : en:Chapter 07 00:45:21.260 : en:Chapter 08 00:50:16.013 : en:Chapter 09 00:56:42.273 : en:Chapter 10 01:07:53.027 : en:Chapter 11 01:13:38.914 : en:Chapter 12 01:18:49.808 : en:Chapter 13 01:24:43.244 : en:Chapter 14 01:32:19.242 : en:Chapter 15 01:39:31.382 : en:Chapter 16
[+] Скриншоты

Всего файлов в раздаче: 1 
Boy Kills World (2024) BDRemux 1080p Ukr Eng [Hurtom].mkv31.76 GB

Похожие раздачи по запросу - Пацан
2024-07-23 magnet Злой пацан / An Angry Boy (2023) WEB-DL 1080p | ViruseProject 6.78 GB ↑ 0 ↓ 1
2024-07-15 magnet Пацан против всех / Пробивний чувак / Boy Kills World (2024) UHD BDRemux 2160p | 4K | SDR | D, P | UKR 66.56 GB ↑ 0 ↓ 1
2024-07-15 magnet Пацан против всех / Пробивний чувак / Boy Kills World (2024) BDRip 1080p | D, P | UKR 13.80 GB ↑ 0 ↓ 0
2024-07-13 magnet Пацан против всех / Boy Kills World (2023) BDRip 1080p от Generalfilm | D 5.37 GB ↑ 0 ↓ 0
2024-07-13 magnet Пацан против всех / Boy Kills World (2023) BDRip-AVC от DoMiNo & селезень | D | Мосфильм-Мастер 1.74 GB ↑ 0 ↓ 0
2024-07-13 magnet Пацан против всех / Boy Kills World (2023) BDRemux 1080p | D, P, A 25.17 GB ↑ 0 ↓ 1
2024-07-13 magnet Пацан против всех / Boy Kills World (2023) BDRip 720p от DoMiNo & селезень | D, P, A 5.21 GB ↑ 0 ↓ 0

Комментарии


Зарегистрируйтесь чтобы добавить комментарий
Торрент клиент
byTorrent - программа для загрузки торрент-файлов.

Скачать byTorrent.exe (1,5 МБ)

Скачать byTorrent.zip (0,6 МБ)

Поддержи torrent.by
российских рублей
(300 российских рублей это 4$)

Обратная связь rss

End game ©