↑↓torrent.by
Поиск
Логин:  Регистрация
Пароль:

Территория зла / Land of Bad (2024) BDRip 1080p от MegaPeer | D

download Скачать торрент-файл   magnet Магнитная ссылка Размер: 9.97 GB Добавлен: 2024-07-10 05:00
Пиры будут получены из сети DHT
Последний сидер был замечен вчера в 10:03
Информация Название: Территория зла Оригинальное название: Land of Bad Год выхода: 2024 Жанр: Боевик, криминал Режиссер: Уильям Юбэнк В ролях: Лиам Хемсворт, Рассел Кроу, Люк Хемсворт, Рики Уиттл, Майло Вентимилья, Чика Икогве, Дэниэл Макферсон, Роберт Рабия, Джек Финстерер, Крис Мастерс Мах Описание: Рипер, оператор беспилотника, оказывает воздушную поддержку команде, которая попадает в ловушку, оставшись без оружия. Теперь их единственным средством связи и шансом на выживание становится беспилотник. Страна: США Студия: Broken Open Pictures, Highland Film Group (HFG), R.U. Robot, Short Porch Pictures, Volition Media Partners Продолжительность: 01:53:37 Перевод: Профессиональный (полное дублирование) | Мосфильм-Мастер | Файл Качество: BDRip 1080p Исходник: Land.of.Bad.2024.1080p.CAN.Blu-ray.AVC.TrueHD.5.1-TMT Формат: MKV Кодек: MPEG-4 AVC Видео: 1920x800 (2.40:1), 23.976 fps, MPEG-4 AVC ~ 11.0 Mbps avg, 0.299 bit/pixel Аудио: AC3, 48 kHz, 6 ch, ~448.00 kbps avg | русский | DUB | Аудио: E-AC3, 48 kHz, 6 ch, ~448.00 kbps avg | русский | DUB | Аудио: AC3, 48 kHz, 6 ch, ~640.00 kbps avg | английский | Субтитры: Русские (Forced), Английские (Full, SDH)
[+] Инфо-файлОбщее Уникальный идентификатор : 231238791655429495681853172038430971937 (0xADF6F8A81EC81D59B7E3E888C05D5821) Полное имя : Land.of.Bad.2024.1080p.BluRay.DD.5.1.x264-MegaPeer.mkv Формат : Matroska Версия формата : Version 4 Размер файла : 9,97 Гбайт Продолжительность : 1 ч. 53 мин. Общий битрейт : 12,6 Мбит/сек Частота кадров : 23,976 кадра/сек Название фильма : Территория зла / Land of Bad (2024) от stillet@MegaPeer Дата кодирования : 2024-07-09 14:43:30 UTC Программа кодирования : mkvmerge v15.0.0 ('Duel with the Devil') 64-bit Библиотека кодирования : libebml v1.3.5 + libmatroska v1.4.5 Обложка : Yes Attachments : cover.jpg / cover.jpg Видео Идентификатор : 1 Формат : AVC Формат/Информация : Advanced Video Codec Профиль формата : High@L4.1 Настройки формата : CABAC / 5 Ref Frames Параметр CABAC формата : Да Параметр RefFrames формата : 5 кадров Идентификатор кодека : V_MPEG4/ISO/AVC Продолжительность : 1 ч. 53 мин. Битрейт : 11,0 Мбит/сек Ширина : 1 920 пикселей Высота : 800 пикселей Соотношение сторон дисплея : 2,40:1 Режим частоты кадров : Постоянный Частота кадров : 23,976 (24000/1001) кадра/сек Цветовое пространство : YUV Цветовая субдискретизация : 4:2:0 Битовая глубина : 8 бит Тип развёртки : Прогрессивная Бит/(Пиксели*Кадры) : 0.299 Размер потока : 8,74 Гбайт (88%) Библиотека кодирования : x264 core 164 r3186+62M stillet t_mod_New Параметры библиотеки кодирования : cabac=1 / ref=5 / deblock=1:-3:-3 / analyse=0x3:0x113 / me=umh / subme=10 / psy=1 / fade_compensate=0.00 / psy_rd=1.03:0.02 / mixed_ref=1 / me_range=32 / chroma_me=1 / trellis=2 / 8x8dct=1 / cqm=0 / deadzone=21,11 / fast_pskip=0 / chroma_qp_offset=-3 / threads=12 / lookahead_threads=2 / sliced_threads=0 / nr=0 / decimate=0 / interlaced=0 / bluray_compat=0 / constrained_intra=0 / fgo=0 / bframes=9 / b_pyramid=2 / b_adapt=2 / b_bias=0 / direct=3 / weightb=1 / open_gop=0 / weightp=2 / keyint=240 / keyint_min=24 / scenecut=40 / intra_refresh=0 / rc_lookahead=40 / rc=2pass / mbtree=0 / bitrate=11022 / ratetol=1.0 / qcomp=0.60 / qpmin=0:0:0 / qpmax=69:69:69 / qpstep=4 / cplxblur=20.0 / qblur=0.5 / vbv_maxrate=50000 / vbv_bufsize=62500 / nal_hrd=none / filler=0 / ip_ratio=1.40 / pb_ratio=1.30 / aq=1:1.10 / aq-sensitivity=10.00 / aq-factor=1.00:1.00:1.00 / aq2=0 / aq3=0 Язык : Английский По умолчанию : Да Принудительно : Нет Аудио #1 Идентификатор : 2 Формат : AC-3 Формат/Информация : Audio Coding 3 Коммерческое название : Dolby Digital Идентификатор кодека : A_AC3 Продолжительность : 1 ч. 53 мин. Вид битрейта : Постоянный Битрейт : 448 Кбит/сек Канал(-ы) : 6 каналов Расположение каналов : L R C LFE Ls Rs Частота дискретизации : 48,0 КГц Частота кадров : 31,250 кадров/сек (1536 SPF) Метод сжатия : С потерями Размер потока : 364 Мбайт (4%) Заголовок : DUB | Мосфильм-Мастер Язык : Русский Вид сервиса : Complete Main По умолчанию : Да Принудительно : Да AC3_metadata cmixlev : -3.0 dB surmixlev : -3 dB Аудио #2 Идентификатор : 3 Формат : E-AC-3 Формат/Информация : Enhanced AC-3 Коммерческое название : Dolby Digital Plus Идентификатор кодека : A_EAC3 Продолжительность : 1 ч. 53 мин. Вид битрейта : Постоянный Битрейт : 448 Кбит/сек Канал(-ы) : 6 каналов Расположение каналов : L R C LFE Ls Rs Частота дискретизации : 48,0 КГц Частота кадров : 31,250 кадров/сек (1536 SPF) Метод сжатия : С потерями Размер потока : 364 Мбайт (4%) Заголовок : DUB | Мосфильм-Мастер Язык : Русский Вид сервиса : Complete Main По умолчанию : Нет Принудительно : Нет Аудио #3 Идентификатор : 4 Формат : AC-3 Формат/Информация : Audio Coding 3 Коммерческое название : Dolby Digital Идентификатор кодека : A_AC3 Продолжительность : 1 ч. 53 мин. Вид битрейта : Постоянный Битрейт : 640 Кбит/сек Канал(-ы) : 6 каналов Расположение каналов : L R C LFE Ls Rs Частота дискретизации : 48,0 КГц Частота кадров : 31,250 кадров/сек (1536 SPF) Метод сжатия : С потерями Размер потока : 520 Мбайт (5%) Язык : Английский Вид сервиса : Complete Main По умолчанию : Нет Принудительно : Нет AC3_metadata cmixlev : -3.0 dB surmixlev : -3 dB Текст #1 Идентификатор : 5 Формат : UTF-8 Идентификатор кодека : S_TEXT/UTF8 Идентификатор кодека/Информация : UTF-8 Plain Text Продолжительность : 1 ч. 42 мин. Битрейт : 1 бит/сек Частота кадров : 0,006 кадр/сек Число элементов : 35 Размер потока : 1,29 КиБ (0%) Заголовок : Forced Язык : Русский По умолчанию : Да Принудительно : Да Текст #2 Идентификатор : 6 Формат : UTF-8 Идентификатор кодека : S_TEXT/UTF8 Идентификатор кодека/Информация : UTF-8 Plain Text Продолжительность : 1 ч. 52 мин. Битрейт : 48 бит/сек Частота кадров : 0,215 кадр/сек Число элементов : 1450 Размер потока : 39,6 КиБ (0%) Заголовок : Full Язык : Английский По умолчанию : Нет Принудительно : Нет Текст #3 Идентификатор : 7 Формат : UTF-8 Идентификатор кодека : S_TEXT/UTF8 Идентификатор кодека/Информация : UTF-8 Plain Text Продолжительность : 1 ч. 53 мин. Битрейт : 60 бит/сек Частота кадров : 0,266 кадр/сек Число элементов : 1807 Размер потока : 50,6 КиБ (0%) Язык : Английский По умолчанию : Нет Принудительно : Нет Меню 00:00:00.000 : Chapter 01 00:16:02.920 : Chapter 02 00:30:08.932 : Chapter 03 00:47:25.968 : Chapter 04 01:02:51.809 : Chapter 05 01:13:42.251 : Chapter 06 01:30:41.269 : Chapter 07 01:47:22.227 : Chapter 08 01:53:37.408 : Chapter 09
Релиз:

Всего файлов в раздаче: 1 
Land.of.Bad.2024.1080p.BluRay.DD.5.1.x264-MegaPeer.mkv9.97 GB

Похожие раздачи по запросу - Территория
2024-07-12 magnet Территория зла / Land of Bad (2024) BDRip-AVC от DoMiNo & селезень | D 1.89 GB ↑ 1 ↓ 1
2024-07-12 magnet Территория зла / Land of Bad (2024) BDRip-HEVC 1080p от HEVC-CLUB | D 5.68 GB ↑ 0 ↓ 1
2024-07-10 magnet Территория зла / Land of Bad (2024) BDRip от DoMiNo & селезень | D 1.46 GB ↑ 0 ↓ 0
2024-07-10 magnet Территория зла / Land of Bad (2024) BDRip от AR-Team | D 1.46 GB ↑ 0 ↓ 0
2024-07-10 magnet Территория зла / Land of Bad (2024) BDRip 720p от DoMiNo & селезень | D, P2, A 5.99 GB ↑ 0 ↓ 1
2024-07-09 magnet Территория зла / Land of Bad (2024) BDRip от MegaPeer | D 1.46 GB ↑ 0 ↓ 0
2024-06-20 magnet Сара Брукс - Территория чудовищ. Путеводитель для осторожных туристов (2024) FB2 1К2.16 MB ↑ 0 ↓ 0

Комментарии


Зарегистрируйтесь чтобы добавить комментарий
Торрент клиент
byTorrent - программа для загрузки торрент-файлов.

Скачать byTorrent.exe (1,5 МБ)

Скачать byTorrent.zip (0,6 МБ)

Поддержи torrent.by
российских рублей
(300 российских рублей это 4$)

Обратная связь rss

End game ©