↑↓torrent.by
Поиск
Логин:  Регистрация
Пароль:

Планета обезьян: Новое царство / Kingdom of the Planet of the Apes (2024) WEB-DLRip 1080p от селезень | D | MovieDalen

download Скачать торрент-файл   magnet Магнитная ссылка Размер: 6.16 GB Добавлен: 2024-07-10 05:00
Пиры будут получены из сети DHT
Последний сидер был замечен сегодня в 02:03
Информация о фильме Название: Планета обезьян: Новое царство Оригинальное название: Kingdom of the Planet of the Apes Год выхода: 2024 Жанр: Фантастика, боевик, приключения Режиссер: Уэс Болл В ролях: Оуэн Тиг, Питер Макон, Фрейя Аллан, Кевин Дюран, Трэвис Джеффри, Уильям Х. Мэйси, Дичен Лакмэн, Ика Дэрвилл, Лидия Пекхэм, Нил Сэндилэндс О фильме: Несколько поколений после правления Цезаря. Обезьяны являются доминирующим видом, живущим в гармонии, а люди вынуждены оставаться в тени. Пока новый тиранический лидер обезьян строит свою империю, один молодой шимпанзе отправляется в путешествие, которое заставит его усомниться во всём, что он знал о прошлом, и сделать выбор, который определит будущее как обезьян, так и людей. Страна: США, Австралия Студия: 20th Century Fox Film Corporation, Fox Studios Australia, Jason T. Reed Productions, Oddball Entertainment Продолжительность: 02:24:40 Перевод: Дублированный | MovieDalen Субтитры: Русские (forced), английские Файл Формат: Matroska Качество: WEB-DLRip 1080p Исходник: Kingdom.of.the.Planet.of.the.Apes.2024.2160p.WEB-DL.DDP5.1.Atmos.H.265-XEBEC Видео: 1920x802 at 24.000 fps, x264@L4.1, ~5192 kbps Аудио 1: AC3, 6 ch, ~448 kbps - | Русский | Аудио 2: AC3, 6 ch, ~448 kbps - | Английский | Формат субтитров: softsub (SRT)
[+] M/IGeneral Unique ID : 170941762149081903748963826359702737100 (0x809A2F93A9FB87968C22E7208ACD50CC) Complete name : L:Kingdom.of.the.Planet.of.the.Apes.2024.WEB-DLRip.1080p.x264.seleZen.mkv Format : Matroska Format version : Version 4 File size : 6.16 GiB Duration : 2 h 24 min Overall bit rate : 6 090 kb/s Frame rate : 24.000 FPS Movie name : Kingdom.of.the.Planet.of.the.Apes.2024.WEB-DLRip.1080p.x264.seleZen Encoded date : 2024-07-09 17:50:10 UTC Writing application : mkvmerge v85.0 ('Shame For You') 64-bit Writing library : libebml v1.4.5 + libmatroska v1.7.1 Video ID : 1 Format : AVC Format/Info : Advanced Video Codec Format profile : High@L4.1 Format settings : CABAC / 5 Ref Frames Format settings, CABAC : Yes Format settings, Reference : 5 frames Codec ID : V_MPEG4/ISO/AVC Duration : 2 h 24 min Bit rate : 5 192 kb/s Width : 1 920 pixels Height : 802 pixels Display aspect ratio : 2.39:1 Frame rate mode : Constant Frame rate : 24.000 FPS Color space : YUV Chroma subsampling : 4:2:0 Bit depth : 8 bits Scan type : Progressive Bits/(Pixel*Frame) : 0.140 Stream size : 5.25 GiB (85%) Title : seleZen Writing library : x264 core 164 r3164 seleZen Encoding settings : cabac=1 / ref=5 / deblock=1:-2:-2 / analyse=0x3:0x133 / me=umh / subme=10 / psy=1 / psy_rd=1.03:0.01 / mixed_ref=1 / me_range=32 / chroma_me=1 / trellis=2 / 8x8dct=1 / cqm=0 / deadzone=21,11 / fast_pskip=0 / chroma_qp_offset=-3 / threads=25 / lookahead_threads=4 / sliced_threads=0 / nr=0 / decimate=0 / interlaced=0 / bluray_compat=0 / constrained_intra=0 / bframes=8 / b_pyramid=2 / b_adapt=2 / b_bias=0 / direct=1 / weightb=1 / open_gop=0 / weightp=2 / keyint=240 / keyint_min=23 / scenecut=40 / intra_refresh=0 / rc_lookahead=60 / rc=crf / mbtree=0 / crf=18.6 / qcomp=0.60 / qpmin=0 / qpmax=51 / qpstep=4 / vbv_maxrate=50000 / vbv_bufsize=62500 / crf_max=0.0 / nal_hrd=none / filler=0 / ip_ratio=1.40 / pb_ratio=1.30 / aq=3:0.80 Language : English Default : Yes Forced : No Audio #1 ID : 2 Format : AC-3 Format/Info : Audio Coding 3 Commercial name : Dolby Digital Codec ID : A_AC3 Duration : 2 h 24 min Bit rate mode : Constant Bit rate : 448 kb/s Channel(s) : 6 channels Channel layout : L R C LFE Ls Rs Sampling rate : 48.0 kHz Frame rate : 31.250 FPS (1536 SPF) Compression mode : Lossy Stream size : 463 MiB (7%) Title : Дубляж - MovieDalen Language : Russian Service kind : Complete Main Default : Yes Forced : No Dialog Normalization : -31 dB cmixlev : -4.5 dB surmixlev : -6 dB dialnorm_Average : -31 dB dialnorm_Minimum : -31 dB dialnorm_Maximum : -31 dB Audio #2 ID : 3 Format : AC-3 Format/Info : Audio Coding 3 Commercial name : Dolby Digital Codec ID : A_AC3 Duration : 2 h 24 min Bit rate mode : Constant Bit rate : 448 kb/s Channel(s) : 6 channels Channel layout : L R C LFE Ls Rs Sampling rate : 48.0 kHz Frame rate : 31.250 FPS (1536 SPF) Compression mode : Lossy Stream size : 464 MiB (7%) Title : Original Language : English Service kind : Complete Main Default : No Forced : No Dialog Normalization : -31 dB cmixlev : -4.5 dB surmixlev : -6 dB dialnorm_Average : -31 dB dialnorm_Minimum : -31 dB dialnorm_Maximum : -31 dB Text #1 ID : 4 Format : UTF-8 Codec ID : S_TEXT/UTF8 Codec ID/Info : UTF-8 Plain Text Duration : 2 h 13 min Bit rate : 0 b/s Frame rate : 0.002 FPS Count of elements : 19 Stream size : 697 Bytes (0%) Title : Forced Language : Russian Default : No Forced : No Text #2 ID : 5 Format : UTF-8 Codec ID : S_TEXT/UTF8 Codec ID/Info : UTF-8 Plain Text Duration : 2 h 9 min Bit rate : 0 b/s Frame rate : 0.002 FPS Count of elements : 12 Stream size : 178 Bytes (0%) Title : Forced Language : English Default : No Forced : No Text #3 ID : 6 Format : UTF-8 Codec ID : S_TEXT/UTF8 Codec ID/Info : UTF-8 Plain Text Duration : 2 h 11 min Bit rate : 17 b/s Frame rate : 0.118 FPS Count of elements : 932 Stream size : 17.0 KiB (0%) Title : Full Language : English Default : No Forced : No
Релиз: Присоединяйся к: Кликай на баннеры.

Всего файлов в раздаче: 1 
Kingdom.of.the.Planet.of.the.Apes.2024.WEB-DLRip.1080p.x264.seleZen.mkv6.16 GB

Похожие раздачи по запросу - Планета
Вчера magnet Планета обезьян: Новое царство / Kingdom of the Planet of the Apes (2024) WEB-DLRip 720p от DoMiNo & селезень | D, P, A | MovieDalen, Red Head Sound, Jaskier, Есарев 4.74 GB ↑ 0 ↓ 5
Вчера magnet Планета обезьян: Новое царство / Kingdom of the Planet of the Apes (2024) WEB-DLRip от DoMiNo & селезень | D | Red Head Sound 1.46 GB ↑ 0 ↓ 3
2024-07-16 magnet Планета обезьян: Новое царство / Kingdom of the Planet of the Apes (2024) UHD WEB-DL 2160p | 4K | Dolby Vision TV | D | MovieDalen, Red Head Sound 16.31 GB ↑ 0 ↓ 4
2024-07-12 magnet Планета обезьян: Новое царство / Kingdom of the Planet of the Apes (2024) WEB-DLRip 1080p от селезень | D, P, A 7.19 GB ↑ 1 ↓ 2
2024-07-12 magnet Планета обезьян: Новое царство / Kingdom of the Planet of the Apes (2024) WEB-DLRip от DoMiNo & селезень | P | Jaskier 1.46 GB ↑ 0 ↓ 0
2024-07-12 magnet Планета обезьян: Новое царство / Kingdom of the Planet of the Apes (2024) UHD WEB-DL 2160p | 4K | HDR | Dolby Vision Profile 8 | D, P, A 26.54 GB ↑ 1 ↓ 3
2024-07-11 magnet Планета обезьян: Новое царство / Kingdom of the Planet of the Apes (2024) WEB-DLRip 720p от DoMiNo & селезень | D, P, A 4.48 GB ↑ 0 ↓ 0

Комментарии


Зарегистрируйтесь чтобы добавить комментарий
Торрент клиент
byTorrent - программа для загрузки торрент-файлов.

Скачать byTorrent.exe (1,5 МБ)

Скачать byTorrent.zip (0,6 МБ)

Поддержи torrent.by
российских рублей
(300 российских рублей это 4$)

Обратная связь rss

End game ©