↑↓torrent.by
Поиск
Логин:  Регистрация
Пароль:

Влюблённые на всю голову / Amor en toda la cara / Love All Over Your Face (2024) WEB-DLRip-AVC | L

download Скачать торрент-файл   magnet Магнитная ссылка Размер: 1.94 GB Раздают: 4 Качают: 0 Добавлен: il68k 2024-07-10 06:47
Пиры будут получены из сети DHT
Последний сидер был замечен сегодня в 18:28
Информация о фильме Название: Влюблённые на всю голову Оригинальное название: Amor en toda la cara / Love All Over Your Face Год выхода: 2024 Жанр: комедия Режиссер: Джералд Б. Филлмор В ролях: Джеральд Б. Филлмор, Ванесса Бенавенте, Тито Вальверде, Уильям Миллер, Мела Грин, Карлос Сантос, Бо Боукер, Лаура Паталано, Рафаэль Сиглер, Мика Кубо О фильме: Дэнни (испанец) и Ана (мексиканка) только начали встречаться в Лос-Анджелесе, когда Дэнни приходится вернуться в Мадрид, чтобы продлить визу. Он уже собирается уезжать, когда пандемия охватывает весь мир, делая невозможным его возвращение в США. Страна: Испания Студия: LyO Media, The Aurora Project Entertainment Продолжительность: 01:35:52 Перевод: Любительский (многоголосый закадровый) | AlphaProject Файл Кодек: Н.264 Качество: WEB-DLRip-AVC Видео: MPEG-4 AVC, 2312 Kbps, 1024x436 (2.35:1), 23.976 fps, 0.216 bit/pixel, High@L4.1 Звук: 48 kHz, AC3 Dolby Digital, 2/0 (L, R) ch, ~192 kbps | AlphaProject Звук: 48 kHz, AC3 Dolby Digital, 3/2 (L, C, R, l, r) + LFE ch, ~384 kbps | Испанский Субтитры: английские, испанские (forced, full), французские Семпл
[+] Скриншоты
[+] MediaInfo raw : 1024x436p 1:1 @ 24000/1001 fps (cfr) x264 : using SAR=1/1 x264 : using cpu capabilities: MMX2 SSE2Fast SSSE3 SSE4.2 AVX FMA3 BMI2 AVX2 x264 : profile High, level 4.1, 4:2:0, 8-bit x264 : frame I:1460 Avg QP:17.41 size: 73925 x264 : frame P:33865 Avg QP:20.13 size: 23541 x264 : frame B:102593 Avg QP:22.26 size: 7381 x264 : consecutive B-frames: 2.8% 3.4% 12.5% 37.8% 15.1% 23.2% 1.7% 0.8% 0.6% 0.4% 0.2% 0.3% 1.1% x264 : mb I I16..4: 12.3% 47.3% 40.4% x264 : mb P I16..4: 1.4% 11.9% 4.0% P16..4: 28.5% 19.7% 13.3% 0.0% 0.0% skip:21.3% x264 : mb B I16..4: 0.2% 1.5% 0.6% B16..8: 24.5% 10.6% 3.9% direct: 5.1% skip:53.6% L0:36.0% L1:39.7% BI:24.3% x264 : 8x8 transform intra:64.3% inter:54.0% x264 : direct mvs spatial:100.0% temporal:0.0% x264 : coded y, uvDC, uvAC intra: 78.8% 86.5% 65.7% inter: 20.6% 19.8% 8.1% x264 : i16 v, h, dc, p: 35% 22% 8% 35% x264 : i8 v, h, dc, ddl, ddr, vr, hd, vl, hu: 16% 12% 10% 7% 10% 12% 11% 10% 12% x264 : i4 v, h, dc, ddl, ddr, vr, hd, vl, hu: 24% 11% 6% 7% 11% 12% 10% 9% 10% x264 : i8c dc, h, v, p: 39% 24% 21% 16% x264 : Weighted P-Frames: Y:3.4% UV:1.7% x264 : ref P L0: 53.8% 15.2% 12.6% 4.0% 3.3% 2.3% 2.0% 1.1% 1.1% 0.9% 0.8% 0.7% 0.7% 0.6% 0.7% 0.0% x264 : ref B L0: 83.5% 7.2% 3.1% 1.6% 1.1% 0.8% 0.7% 0.5% 0.4% 0.4% 0.3% 0.2% 0.2% 0.1% x264 : ref B L1: 97.1% 2.9% x264 : kb/s:2311.98 x264 : encoded 137918 frames, 15.05 fps, 2311.98 kb/s ================================================================= General Unique ID: 328166435146620884102359337700942877816 (0xF6E28E717C954B1205A806DAA1731478) Complete name: D:\Vlyublyonnye.na.vsyu.golovu.2024.WEB-DLRip.AVC.mkv Format: Matroska Format version: Version 4 File size: 1.94 GiB Duration: 1 h 35 min Overall bit rate: 2 891 kb/s Frame rate: 23.976 FPS Movie name: Love All Over Your Face (2024) WEB-DLRip-AVC _ vitolinform Encoded date: 2024-07-10 00:25:00 UTC Writing application: mkvmerge v85.0 ('Shame For You') 64-bit Writing library: libebml v1.4.5 + libmatroska v1.7.1 Attachments: poster.jpg / log.log Video ID: 1 Format: AVC Format/Info: Advanced Video Codec Format profile: High@L4.1 Format settings: CABAC / 15 Ref Frames Format settings, CABAC: Yes Format settings, Reference frames: 15 frames Codec ID: V_MPEG4/ISO/AVC Duration: 1 h 35 min Bit rate: 2 312 kb/s Width: 1 024 pixels Height: 436 pixels Display aspect ratio: 2.35:1 Frame rate mode: Constant Frame rate: 23.976 (24000/1001) FPS Color space: YUV Chroma subsampling: 4:2:0 Bit depth: 8 bits Scan type: Progressive Bits/(Pixel*Frame): 0.216 Stream size: 1.55 GiB (80%) Title: Влюблённые на всю голову / Amor en toda la cara / Love All Over Your Face (2024) Writing library: x264 core 164 r3182 be4f020 Encoding settings: cabac=1 / ref=15 / deblock=1:-3:-3 / analyse=0x3:0x113 / me=umh / subme=10 / psy=1 / psy_rd=1.00:0.05 / mixed_ref=1 / me_range=32 / chroma_me=1 / trellis=2 / 8x8dct=1 / cqm=0 / deadzone=21, 11 / fast_pskip=0 / chroma_qp_offset=-3 / threads=12 / lookahead_threads=3 / sliced_threads=0 / nr=0 / decimate=0 / interlaced=0 / bluray_compat=0 / constrained_intra=0 / bframes=12 / b_pyramid=2 / b_adapt=2 / b_bias=0 / direct=3 / weightb=1 / open_gop=0 / weightp=2 / keyint=240 / keyint_min=24 / scenecut=40 / intra_refresh=0 / rc_lookahead=60 / rc=crf / mbtree=0 / crf=18.0 / qcomp=0.60 / qpmin=0 / qpmax=69 / qpstep=4 / vbv_maxrate=50000 / vbv_bufsize=62500 / crf_max=0.0 / nal_hrd=none / filler=0 / ip_ratio=1.40 / pb_ratio=1.30 / aq=1:1.00 Language: English Default: Yes Forced: No Color range: Limited Color primaries: BT.709 Transfer characteristics: BT.709 Matrix coefficients: BT.709 Audio #1 ID: 2 Format: AC-3 Format/Info: Audio Coding 3 Commercial name: Dolby Digital Codec ID: A_AC3 Duration: 1 h 35 min Bit rate mode: Constant Bit rate: 192 kb/s Channel(s): 2 channels Channel layout: L R Sampling rate: 48.0 kHz Frame rate: 31.250 FPS (1536 SPF) Compression mode: Lossy Stream size: 132 MiB (7%) Title: MVO | AlphaProject Language: Russian Service kind: Complete Main Default: Yes Forced: No Audio #2 ID: 3 Format: AC-3 Format/Info: Audio Coding 3 Commercial name: Dolby Digital Codec ID: A_AC3 Duration: 1 h 35 min Bit rate mode: Constant Bit rate: 384 kb/s Channel(s): 6 channels Channel layout: L R C LFE Ls Rs Sampling rate: 48.0 kHz Frame rate: 31.250 FPS (1536 SPF) Compression mode: Lossy Stream size: 263 MiB (13%) Title: Spanish Language: Spanish Service kind: Complete Main Default: No Forced: No Text #1 ID: 4 Format: UTF-8 Codec ID: S_TEXT/UTF8 Codec ID/Info: UTF-8 Plain Text Duration: 1 h 31 min Bit rate: 21 b/s Frame rate: 0.088 FPS Count of elements: 478 Stream size: 14.5 KiB (0%) Title: Forced Language: Spanish Default: No Forced: No Text #2 ID: 5 Format: UTF-8 Codec ID: S_TEXT/UTF8 Codec ID/Info: UTF-8 Plain Text Duration: 1 h 35 min Bit rate: 99 b/s Frame rate: 0.349 FPS Count of elements: 2001 Stream size: 69.7 KiB (0%) Title: Full Language: Spanish Default: No Forced: No Text #3 ID: 6 Format: UTF-8 Codec ID: S_TEXT/UTF8 Codec ID/Info: UTF-8 Plain Text Duration: 1 h 35 min Bit rate: 97 b/s Frame rate: 0.365 FPS Count of elements: 2093 Stream size: 68.4 KiB (0%) Title: Full Language: English Default: No Forced: No Text #4 ID: 7 Format: UTF-8 Codec ID: S_TEXT/UTF8 Codec ID/Info: UTF-8 Plain Text Duration: 1 h 35 min Bit rate: 123 b/s Frame rate: 0.365 FPS Count of elements: 2093 Stream size: 86.5 KiB (0%) Title: Full Language: French Default: No Forced: No Menu 00:00:00.000: en:Chapter 01 01:31:52.009: en:Credits 01:32:11.060: en:Chapter 02 01:33:54.029: en:Chapter 03
Rip by vitolinform

Всего файлов в раздаче: 1 
Vlyublyonnye.na.vsyu.golovu.2024.WEB-DLRip.AVC.mkv1.94 GB

Комментарии


Зарегистрируйтесь чтобы добавить комментарий
Торрент клиент
byTorrent - программа для загрузки торрент-файлов.

Скачать byTorrent.exe (1,5 МБ)

Скачать byTorrent.zip (0,6 МБ)

Поддержи torrent.by
российских рублей
(300 российских рублей это 4$)

Обратная связь rss

End game ©