↑↓torrent.by
Поиск
Логин:  Регистрация
Пароль:

Anna Prior - Almost Love [24Bit, Hi-Res] (2024) FLAC

download Скачать торрент-файл   magnet Магнитная ссылка Размер: 395.55 MB Добавлен: 2024-07-10 11:00
Пиры будут получены из сети DHT
Последний сидер был замечен 2024-07-11 14:38
Anna Prior - Almost Love (2024) Жанр: Synthpop Издание: House Anxiety 2024 Источник: ссылка Продолжительность: 00:33:57 Кодек: FLAC 24/44.1 Битрейт: Lossless|WEB-DL Тип рипа: tracks Треклист: 01. Almost Love 02. Tech Não 03. Fall Back 04. Under A Halo 05. Nervous 06. Up2U 07. Who Is She
[+] Отчёт Замер динамического диапазона (DR): foobar2000 2.0 / Замер динамического диапазона (DR) 1.1.1 Дата отчёта: 2024-07-09 17:06:28 -------------------------------------------------------------------------------- Анализ: Anna Prior / Almost Love -------------------------------------------------------------------------------- DR Пики RMS Продолжительность трека -------------------------------------------------------------------------------- DR9 0.00 дБ -11.81 дБ 5:49 01-Almost Love DR8 0.00 дБ -10.01 дБ 4:56 02-Tech Não DR10 0.00 дБ -11.63 дБ 5:18 03-Fall Back DR8 -0.51 дБ -10.73 дБ 5:37 04-Under A Halo DR11 0.00 дБ -11.75 дБ 4:17 05-Nervous DR9 -0.50 дБ -11.04 дБ 4:30 06-Up2U DR9 -0.50 дБ -10.92 дБ 3:31 07-Who Is She -------------------------------------------------------------------------------- Количество треков: 7 Реальные значения DR: DR9 Частота: 44100 Гц Каналов: 2 Разрядность: 24 Битрейт: 1584 кбит/с Кодек: FLAC ================================================================================
[+] Отчёт Mi: Format : FLAC Format/Info : Free Lossless Audio Codec File size : 68.4 MiB Duration : 5 min 49 s Overall bit rate mode : Variable Overall bit rate : 1 643 kb/s Album : Almost Love Album/Performer : Anna Prior Part : 1 Part/Total : 1 Track name : Almost Love Track name/Position : 1 Track name/Total : 7 Performer : Anna Prior Composer : Anna Prior / James Greenwood Producer : House Anxiety Label : House Anxiety Genre : Synthpop Recorded date : 2024-06-13 ISRC : FR10S2441535 Copyright : House Anxiety 2024 House Anxiety 2024 Cover : Yes Cover type : Cover (front) Cover MIME : image/jpeg Comment : https://www.qobuz.com/gb-en/album/almost-love-anna-prior/q2p5779lhadnc PRODUCER : Anna Prior / James Greenwood INVOLVEDPEOPLE : Anna Prior, Composer, Lyricist, Producer, MainArtist - James Greenwood, Composer, Lyricist, Producer ITUNESADVISORY : 0 MEDIATYPE : album UPC : 3617382818573 URL : https://www.qobuz.com/fr-fr/album/almost-love-anna-prior/q2p5779lhadnc Audio Format : FLAC Format/Info : Free Lossless Audio Codec Duration : 5 min 49 s Bit rate mode : Variable Bit rate : 1 641 kb/s Channel(s) : 2 channels Channel layout : L R Sampling rate : 44.1 kHz Bit depth : 24 bits Compression mode : Lossless Stream size : 68.3 MiB (100%) MD5 of the unencoded content : 00000000000000000000000000000000 General Complete name : C:Deemix MusicJuly 05, 2024Anna Prior 2024 - Almost Love (24bit-44.1kHz)

Всего файлов в раздаче: 8 
01 - Almost Love.flac68.37 MB
02 - Tech Não.flac54.47 MB
03 - Fall Back.flac61.48 MB
04 - Under A Halo.flac65.21 MB
05 - Nervous.flac51.94 MB
06 - Up2U.flac51.19 MB
07 - Who Is She.flac39.83 MB
Cover.jpg3.07 MB

Похожие раздачи по запросу - Anna
2024-03-28 magnet Чувственная медсестра / Медсестра / L'infermiera / Nurse Anna / The Secrets of a Sensuous Nurse (1975) WEB-DLRip | L1 745.89 MB ↑ 0 ↓ 0
2023-10-20 magnet Изобретая Анну / Inventing Anna [S01] (2022) WEB-DL 1080p | Невафильм 27.52 GB ↑ 0 ↓ 0

Комментарии


Зарегистрируйтесь чтобы добавить комментарий
Торрент клиент
byTorrent - программа для загрузки торрент-файлов.

Скачать byTorrent.exe (1,5 МБ)

Скачать byTorrent.zip (0,6 МБ)

Поддержи torrent.by
российских рублей
(300 российских рублей это 4$)

Обратная связь rss

End game ©