↑↓torrent.by
Поиск
Логин:  Регистрация
Пароль:

Планета обезьян: Новое царство / Kingdom of the Planet of the Apes (2024) UHD WEB-DL 2160p | 4K | Dolby Vision TV | D

download Скачать торрент-файл   magnet Магнитная ссылка Размер: 16.04 GB Раздают: 1 Качают: 0 Добавлен: 2024-07-10 11:00
Пиры будут получены из сети DHT
Последний сидер был замечен сегодня в 02:11
ДАННЫЙ РЕЛИЗ БЕЗ HDR СЛОЯ, ТОЛЬКО ДЛЯ УСТРОЙСТВ С ПОДДЕРЖКОЙ DOLBY VISION. Если ваше устройство без поддержки DOLBY VISION, изображение будет "фиолетовое", как на первом скриншоте Название: Планета обезьян: Новое царство Оригинальное название: Kingdom of the Planet of the Apes Год выхода: 2024 Производство: США, Австралия / 20th Century Fox Film Corporation, Fox Studios Australia, Jason T. Reed Productions, Oddball Entertainment Жанр: Фантастика, боевик, приключения Перевод: Профессиональный дублированный Продолжительность: 02:24:40 Режиссёр: Уэс Болл В ролях: Оуэн Тиг, Питер Макон, Фрейя Аллан, Кевин Дюран, Трэвис Джеффри, Уильям Х. Мэйси, Дичен Лакмэн, Ика Дэрвилл, Лидия Пекхэм, Нил Сэндилэндс Описание: Несколько поколений после правления Цезаря. Обезьяны являются доминирующим видом, живущим в гармонии, а люди вынуждены оставаться в тени. Пока новый тиранический лидер обезьян строит свою империю, один молодой шимпанзе отправляется в путешествие, которое заставит его усомниться во всём, что он знал о прошлом, и сделать выбор, который определит будущее как обезьян, так и людей. Формат: MPEG-4 Качество: WEB-DL 2160p Видео: MPEGH HEVC / ~14.3 Mbps / 3840x1606 / 0.096 Бит/(Пиксели*Кадры) / 24.000 fps (Dolby Vision, Version 1.0, Profile 5, dvhe.05.06, BL+RPU, no metadata compression) Аудио 01: AC-3, 6 ch, 448 kbps | Русский, DUB | MovieDalen | Аудио 02: AC-3, 6 ch, 383 kbps | Украинский, DUB | iTunes | Аудио 03: E-AC-3 Atmos, 6 ch, 768 kbps | Английский | Субтитры: Русские (Forced), украинские (Forced, Full), английские (Forced, Full) ДАННЫЙ РЕЛИЗ БЕЗ HDR СЛОЯ, ТОЛЬКО ДЛЯ УСТРОЙСТВ С ПОДДЕРЖКОЙ DOLBY VISION. Если ваше устройство без поддержки DOLBY VISION, изображение будет "фиолетовое", как на первом скриншоте
[+] MediainfoGeneral Format : MPEG-4 Format profile : Base Media Codec ID : isom (isom/dby1/iso2/mp41) File size : 16.0 GiB Duration : 2 h 24 min Overall bit rate mode : Variable Overall bit rate : 15.9 Mb/s Frame rate : 24.000 FPS Movie name : Kingdom of the Planet of the Apes (2024) by TheEqualizer Tagged date : 2024-07-09 21:25:39 UTC Writing application : Lavf60.3.100 Cover : Yes Video ID : 1 Format : HEVC Format/Info : High Efficiency Video Coding Format profile : Main 10@L5@High HDR format : Dolby Vision, Version 1.0, Profile 5, dvhe.05.06, BL+RPU, no metadata compression Codec ID : hev1 Codec ID/Info : High Efficiency Video Coding Duration : 2 h 24 min Bit rate : 14.3 Mb/s Width : 3 840 pixels Height : 1 606 pixels Display aspect ratio : 2.39:1 Frame rate mode : Constant Frame rate : 24.000 FPS Color space : YUV Chroma subsampling : 4:2:0 Bit depth : 10 bits Bits/(Pixel*Frame) : 0.096 Stream size : 14.4 GiB (90%) Title : Kingdom of the Planet of the Apes Language : English Tagged date : 2024-07-09 21:25:39 UTC Menus : 12 Codec configuration box : hvcC+dvcC Audio #1 ID : 3 Format : E-AC-3 Format/Info : Enhanced AC-3 Commercial name : Dolby Digital Plus Codec ID : ec-3 Duration : 2 h 24 min Bit rate mode : Constant Bit rate : 448 kb/s Channel(s) : 6 channels Channel layout : L R C LFE Ls Rs Sampling rate : 48.0 kHz Frame rate : 31.250 FPS (1536 SPF) Compression mode : Lossy Stream size : 464 MiB (3%) Title : DUB | MovieDalen (PROPER) Language : Russian Service kind : Complete Main Default : Yes Alternate group : 2 Tagged date : 2024-07-09 21:25:39 UTC Menus : 12 Dialog Normalization : -31 dB compr : -0.28 dB dmixmod : Lo/Ro ltrtcmixlev : -3.0 dB ltrtsurmixlev : -3.0 dB lorocmixlev : -3.0 dB lorosurmixlev : -3.0 dB dialnorm_Average : -31 dB dialnorm_Minimum : -31 dB dialnorm_Maximum : -31 dB Audio #2 ID : 4 Format : AC-3 Format/Info : Audio Coding 3 Commercial name : Dolby Digital Codec ID : ac-3 Duration : 2 h 24 min Bit rate mode : Constant Bit rate : 384 kb/s Channel(s) : 6 channels Channel layout : L R C LFE Ls Rs Sampling rate : 48.0 kHz Frame rate : 31.250 FPS (1536 SPF) Compression mode : Lossy Stream size : 397 MiB (2%) Title : DUB | Postmodern Language : Ukrainian Service kind : Complete Main Default : No Alternate group : 3 Tagged date : 2024-07-09 21:25:39 UTC Menus : 12 Dialog Normalization : -27 dB compr : -0.28 dB cmixlev : -3.0 dB surmixlev : -3 dB ltrtcmixlev : -3.0 dB ltrtsurmixlev : -3.0 dB lorocmixlev : -3.0 dB lorosurmixlev : -3.0 dB dialnorm_Average : -27 dB dialnorm_Minimum : -27 dB dialnorm_Maximum : -27 dB Audio #3 ID : 5 Format : E-AC-3 JOC Format/Info : Enhanced AC-3 with Joint Object Coding Commercial name : Dolby Digital Plus with Dolby Atmos Codec ID : ec-3 Duration : 2 h 24 min Bit rate mode : Constant Bit rate : 768 kb/s Channel(s) : 6 channels Channel layout : L R C LFE Ls Rs Sampling rate : 48.0 kHz Frame rate : 31.250 FPS (1536 SPF) Compression mode : Lossy Stream size : 795 MiB (5%) Title : Original | iTunes Language : English Service kind : Complete Main Default : Yes Alternate group : 4 Tagged date : 2024-07-09 21:25:39 UTC Menus : 12 Complexity index : Not present / 16 Number of dynamic objects : 15 Bed channel count : 1 channel Bed channel configuration : LFE Dialog Normalization : -20 dB compr : -0.28 dB dialnorm_Average : -20 dB dialnorm_Minimum : -20 dB dialnorm_Maximum : -20 dB Text #1 ID : 6 Format : Timed Text Muxing mode : sbtl Codec ID : tx3g Duration : 2 h 24 min Bit rate mode : Variable Bit rate : 6 b/s Frame rate : 0.218 FPS Stream size : 5.87 KiB (0%) Title : Forced | TheEqualizer Language : Russian Default : Yes Forced : Yes / No Alternate group : 5 Count of events : 941 Menus : 12 Text #2 ID : 7 Format : Timed Text Muxing mode : sbtl Codec ID : tx3g Duration : 2 h 23 min Bit rate mode : Variable Bit rate : 6 b/s Frame rate : 0.231 FPS Stream size : 6.03 KiB (0%) Title : Forced | Official Language : Ukrainian Default : No Forced : No Alternate group : 6 Count of events : 998 Menus : 12 Text #3 ID : 8 Format : Timed Text Muxing mode : sbtl Codec ID : tx3g Duration : 2 h 24 min Bit rate mode : Variable Bit rate : 32 b/s Frame rate : 0.220 FPS Stream size : 33.5 KiB (0%) Title : Full | Official Language : Ukrainian Default : No Forced : No Alternate group : 7 Count of events : 954 Menus : 12 Text #4 ID : 9 Format : Timed Text Muxing mode : sbtl Codec ID : tx3g Duration : 2 h 23 min Bit rate mode : Variable Bit rate : 4 b/s Frame rate : 0.194 FPS Stream size : 4.25 KiB (0%) Title : Forced | iTunes Language : English Default : No Forced : No Alternate group : 8 Count of events : 838 Menus : 12 Text #5 ID : 10 Format : Timed Text Muxing mode : sbtl Codec ID : tx3g Duration : 2 h 16 min Bit rate mode : Variable Bit rate : 21 b/s Frame rate : 0.229 FPS Stream size : 20.6 KiB (0%) Title : Full | iTunes Language : English Default : No Forced : No Alternate group : 9 Count of events : 932 Menus : 12 Text #6 ID : 11 Format : Timed Text Muxing mode : sbtl Codec ID : tx3g Duration : 2 h 22 min Bit rate mode : Variable Bit rate : 31 b/s Frame rate : 0.321 FPS Stream size : 32.1 KiB (0%) Title : SDH | iTunes Language : English Default : No Forced : No Alternate group : 10 Count of events : 1375 Menus : 12 Menu #1 ID : 12 Format : Timed Text Codec ID : text Duration : 2 h 24 min Language : English Bit rate mode : CBR Menu For : 1,3,4,5,6,7,8,9,10,11 00:00:00.000 : Chapter 01 00:02:30.208 : Chapter 02 00:08:43.708 : Chapter 03 00:10:51.000 : Chapter 04 00:18:50.416 : Chapter 05 00:31:34.291 : Chapter 06 00:38:28.541 : Chapter 07 00:48:13.666 : Chapter 08 00:55:33.083 : Chapter 09 01:04:40.875 : Chapter 10 01:12:49.416 : Chapter 11 01:16:34.541 : Chapter 12 01:25:22.250 : Chapter 13 01:33:13.000 : Chapter 14 01:36:26.625 : Chapter 15 01:49:14.291 : Chapter 16 01:55:05.083 : Chapter 17 02:04:59.833 : Chapter 18 02:09:31.458 : Chapter 19 02:16:26.166 : Chapter 20 Bit rate mode : Constant Menu #2 00:00:00.000 : Chapter 01 00:02:30.208 : Chapter 02 00:08:43.708 : Chapter 03 00:10:51.000 : Chapter 04 00:18:50.416 : Chapter 05 00:31:34.291 : Chapter 06 00:38:28.541 : Chapter 07 00:48:13.666 : Chapter 08 00:55:33.083 : Chapter 09 01:04:40.875 : Chapter 10 01:12:49.416 : Chapter 11 01:16:34.541 : Chapter 12 01:25:22.250 : Chapter 13 01:33:13.000 : Chapter 14 01:36:26.625 : Chapter 15 01:49:14.291 : Chapter 16 01:55:05.083 : Chapter 17 02:04:59.833 : Chapter 18 02:09:31.458 : Chapter 19 02:16:26.166 : Chapter 20
[+] Скриншоты

Всего файлов в раздаче: 1 
Kingdom.Of.The.Planet.Of.The.Apes.2024.2160p.WEB-DL.DV-TheEqualizer.mp416.04 GB

Похожие раздачи по запросу - Планета
Вчера magnet Планета обезьян: Новое царство / Kingdom of the Planet of the Apes (2024) WEB-DLRip 1080p от селезень | D, P, A | MovieDalen, Red Head Sound, Jaskier, Есарев 7.45 GB ↑ 0 ↓ 8
2024-07-18 magnet Планета обезьян: Новое царство / Kingdom of the Planet of the Apes (2024) WEB-DLRip 720p от DoMiNo & селезень | D, P, A | MovieDalen, Red Head Sound, Jaskier, Есарев 4.74 GB ↑ 0 ↓ 11
2024-07-18 magnet Планета обезьян: Новое царство / Kingdom of the Planet of the Apes (2024) WEB-DLRip от DoMiNo & селезень | D | Red Head Sound 1.46 GB ↑ 1 ↓ 2
2024-07-16 magnet Планета обезьян: Новое царство / Kingdom of the Planet of the Apes (2024) UHD WEB-DL 2160p | 4K | Dolby Vision TV | D | MovieDalen, Red Head Sound 16.31 GB ↑ 0 ↓ 2
2024-07-12 magnet Планета обезьян: Новое царство / Kingdom of the Planet of the Apes (2024) WEB-DLRip 1080p от селезень | D, P, A 7.19 GB ↑ 0 ↓ 1
2024-07-12 magnet Планета обезьян: Новое царство / Kingdom of the Planet of the Apes (2024) WEB-DLRip от DoMiNo & селезень | P | Jaskier 1.46 GB ↑ 0 ↓ 0
2024-07-12 magnet Планета обезьян: Новое царство / Kingdom of the Planet of the Apes (2024) UHD WEB-DL 2160p | 4K | HDR | Dolby Vision Profile 8 | D, P, A 26.54 GB ↑ 2 ↓ 3

Комментарии


Зарегистрируйтесь чтобы добавить комментарий
Торрент клиент
byTorrent - программа для загрузки торрент-файлов.

Скачать byTorrent.exe (1,5 МБ)

Скачать byTorrent.zip (0,6 МБ)

Поддержи torrent.by
российских рублей
(300 российских рублей это 4$)

Обратная связь rss

End game ©