↑↓torrent.by
Поиск
Логин:  Регистрация
Пароль:

Сто лет тому вперёд (2024) WEBRip-HEVC 2160p | 4K | SDR

download Скачать торрент-файл   magnet Магнитная ссылка Размер: 12.50 GB Раздают: 3 Качают: 6 Добавлен: 2024-07-10 11:00
Пиры будут получены из сети DHT
Последний сидер был замечен сегодня в 18:02
Информация о фильме Оригинальное название: Сто лет тому вперёд Год выпуска: 2024 Жанр: фантастика, приключения Выпущено: Россия / Кинокомпания «Водород», «Россия 1», Арт Пикчерс Студия Режиссер: Александр Андрющенко В ролях: Даша Верещагина, Марк Эйдельштейн, Константин Хабенский, Виктория Исакова, Фёдор Бондарчук, Александр Петров, Юра Борисов, Софа Цибирева, Матвей Астраханцев, Кирилл Митрофанов Описание: Они живут в разных мирах. Коля Герасимов — в сегодняшней Москве, Алиса Селезнева — на сто лет позже. Коля — обычный парень, ему нет дела до будущего. Алису не отпускает прошлое: она пытается найти маму, которую потеряла, когда была совсем ребенком. Встреча Алисы и Коли станет началом невероятных приключений, в которых им предстоит отвоевать у космических пиратов Вселенную, восстановить ход времени и обрести самое дорогое: любовь и дружбу. Продолжительность: 02:21:41 Субтитры: Отсутствуют Файл Формат: MKV Качество: WEBRip-HEVC 2160p | 4K | SDR Видео: HEVC/H.265, 3840x2160, ~11.9 Mbps Аудио 1: AC3, 6 ch, 384 Kbps Аудио 2: E-AC3, 6 ch, 384 Kbps Релиз от: karfagen1975
[+] MediaInfo:General Unique ID : 89431541371184032667455180312784700072 (0x4347E36AE6F171D747BD5C6559D482A8) Complete name : Sto.let.tomu.vpered.2024.WEB-DL.2160p.mkv Format : Matroska Format version : Version 4 File size : 12.5 GiB Duration : 2 h 21 min Overall bit rate : 12.6 Mb/s Encoded date : UTC 2024-07-09 22:01:01 Writing application : mkvmerge v75.0.0 ('Goliath') 64-bit Writing library : libebml v1.4.4 + libmatroska v1.7.1 Video ID : 1 Format : HEVC Format/Info : High Efficiency Video Coding Format profile : Main@L5@Main Codec ID : V_MPEGH/ISO/HEVC Duration : 2 h 21 min Bit rate : 11.9 Mb/s Width : 3 840 pixels Height : 2 160 pixels Display aspect ratio : 16:9 Frame rate mode : Constant Frame rate : 24.000 FPS Color space : YUV Chroma subsampling : 4:2:0 Bit depth : 8 bits Bits/(Pixel*Frame) : 0.060 Stream size : 11.7 GiB (94%) Title : Сто лет тому вперёд (2024) WEB-DL 2160p Writing library : x265 3.5+1-f0c1022b6: 8bit+10bit+12bit Encoding settings : cpuid=1111039 / frame-threads=3 / wpp / no-pmode / no-pme / no-psnr / no-ssim / log-level=2 / input-csp=1 / input-res=3840x2160 / interlace=0 / total-frames=0 / level-idc=0 / high-tier=1 / uhd-bd=0 / ref=4 / no-allow-non-conformance / repeat-headers / annexb / no-aud / no-hrd / info / hash=0 / no-temporal-layers / no-open-gop / min-keyint=48 / keyint=48 / gop-lookahead=0 / bframes=3 / b-adapt=0 / b-pyramid / bframe-bias=0 / rc-lookahead=25 / lookahead-slices=4 / scenecut=0 / hist-scenecut=0 / radl=0 / no-splice / no-intra-refresh / ctu=64 / min-cu-size=8 / rect / no-amp / max-tu-size=32 / tu-inter-depth=1 / tu-intra-depth=1 / limit-tu=0 / rdoq-level=2 / dynamic-rd=0.00 / no-ssim-rd / signhide / no-tskip / nr-intra=0 / nr-inter=0 / no-constrained-intra / strong-intra-smoothing / max-merge=3 / limit-refs=3 / limit-modes / me=2 / subme=3 / merange=57 / temporal-mvp / no-frame-dup / no-hme / weightp / no-weightb / no-analyze-src-pics / deblock=0:0 / sao / no-sao-non-deblock / rd=3 / selective-sao=4 / no-early-skip / rskip / no-fast-intra / no-tskip-fast / no-cu-lossless / no-b-intra / no-splitrd-skip / rdpenalty=0 / psy-rd=2.00 / psy-rdoq=0.00 / no-rd-refine / no-lossless / cbqpoffs=0 / crqpoffs=0 / rc=abr / bitrate=12000 / qcomp=0.80 / qpstep=4 / stats-write=0 / stats-read=2 / cplxblur=20.0 / qblur=0.5 / vbv-maxrate=18000 / vbv-bufsize=24000 / vbv-init=0.8 / min-vbv-fullness=50.0 / max-vbv-fullness=80.0 / ipratio=1.40 / pbratio=1.30 / aq-mode=2 / aq-strength=1.00 / cutree / zone-count=0 / no-strict-cbr / qg-size=32 / no-rc-grain / qpmax=69 / qpmin=1 / no-const-vbv / sar=0 / overscan=0 / videoformat=5 / range=0 / colorprim=2 / transfer=2 / colormatrix=2 / chromaloc=0 / display-window=0 / cll=0,0 / min-luma=0 / max-luma=255 / log2-max-poc-lsb=8 / vui-timing-info / vui-hrd-info / slices=1 / no-opt-qp-pps / no-opt-ref-list-length-pps / no-multi-pass-opt-rps / scenecut-bias=0.05 / hist-threshold=0.03 / no-opt-cu-delta-qp / no-aq-motion / no-hdr10 / no-hdr10-opt / no-dhdr10-opt / no-idr-recovery-sei / analysis-reuse-level=0 / analysis-save-reuse-level=0 / analysis-load-reuse-level=0 / scale-factor=0 / refine-intra=0 / refine-inter=0 / refine-mv=1 / refine-ctu-distortion=0 / no-limit-sao / ctu-info=0 / no-lowpass-dct / refine-analysis-type=0 / copy-pic=1 / max-ausize-factor=1.0 / no-dynamic-refine / no-single-sei / no-hevc-aq / no-svt / no-field / qp-adaptation-range=1.00 / scenecut-aware-qp=0conformance-window-offsets / right=0 / bottom=0 / decoder-max-rate=0 / no-vbv-live-multi-pass Language : Russian Default : Yes Forced : No Color range : Limited Audio #1 ID : 2 Format : AC-3 Format/Info : Audio Coding 3 Commercial name : Dolby Digital Codec ID : A_AC3 Duration : 2 h 21 min Bit rate mode : Constant Bit rate : 384 kb/s Channel(s) : 6 channels Channel layout : L R C LFE Ls Rs Sampling rate : 48.0 kHz Frame rate : 31.250 FPS (1536 SPF) Compression mode : Lossy Stream size : 389 MiB (3%) Language : Russian Service kind : Complete Main Default : No Forced : No Audio #2 ID : 3 Format : E-AC-3 Format/Info : Enhanced AC-3 Commercial name : Dolby Digital Plus Codec ID : A_EAC3 Duration : 2 h 21 min Bit rate mode : Constant Bit rate : 384 kb/s Channel(s) : 6 channels Channel layout : L R C LFE Ls Rs Sampling rate : 48.0 kHz Frame rate : 31.250 FPS (1536 SPF) Compression mode : Lossy Stream size : 389 MiB (3%) Language : Russian Service kind : Complete Main Default : No Forced : No
[+] Скриншоты
[+] Дополнительные скриншоты:

Всего файлов в раздаче: 1 
Sto.let.tomu.vpered.2024.WEB-DL.2160p.mkv12.50 GB

Похожие раздачи по запросу - Сто
2024-07-13 magnet Сто лет тому вперёд (2024) WEBRip 720p от DoMiNo & селезень 3.72 GB ↑ 1 ↓ 1
2024-07-10 magnet Сто лет тому вперёд (2024) WEBRip от Generalfilm | КПК 538.33 MB ↑ 0 ↓ 0
2024-07-10 magnet Сто лет тому вперёд (2024) WEBRip-AVC от DoMiNo & селезень 2.04 GB ↑ 0 ↓ 0
2024-07-10 magnet Сто лет тому вперёд (2024) WEBRip от AR-Team 1.46 GB ↑ 1 ↓ 0
2024-07-10 magnet Сто лет тому вперёд (2024) WEBRip 720p от ExKinoRay 3.91 GB ↑ 0 ↓ 0
2024-07-10 magnet Сто лет тому вперёд (2024) WEBRip-AVC от ExKinoRay 1.46 GB ↑ 1 ↓ 1
2024-07-10 magnet Сто лет тому вперёд (2024) WEBRip 1080p от селезень 5.66 GB ↑ 5 ↓ 14

Комментарии


Зарегистрируйтесь чтобы добавить комментарий
Торрент клиент
byTorrent - программа для загрузки торрент-файлов.

Скачать byTorrent.exe (1,5 МБ)

Скачать byTorrent.zip (0,6 МБ)

Поддержи torrent.by
российских рублей
(300 российских рублей это 4$)

Обратная связь rss

End game ©