↑↓torrent.by
Поиск
Логин:  Регистрация
Пароль:

Сто лет тому вперёд (2024) WEBRip-AVC от ExKinoRay

download Скачать торрент-файл   magnet Магнитная ссылка Размер: 1.46 GB Раздают: 2 Качают: 0 Добавлен: 2024-07-10 11:00
Пиры будут получены из сети DHT
Последний сидер был замечен сегодня в 21:16
Название: Сто лет тому вперёд Год выхода: 2024 Жанр: фантастика, приключения, семейный Режиссер: Александр Андрющенко В ролях: Даша Верещагина, Марк Эйдельштейн, Константин Хабенский, Виктория Исакова, Фёдор Бондарчук, Александр Петров, Юра Борисов, Софа Цибирева, Матвей Астраханцев, Кирилл Митрофанов Описание: Они живут в разных мирах. Коля Герасимов - в сегодняшней Москве, Алиса Селезнева - на сто лет позже. Коля - обычный парень, ему нет дела до будущего. Алису не отпускает прошлое: она должна найти маму, которую потеряла, когда была совсем ребенком. Встреча Алисы и Коли станет началом невероятных приключений, в которых нашим героям предстоит отвоевать у космических пиратов Вселенную, восстановить ход времени и обрести самое дорогое: любовь и дружбу. Страна: Россия Студия: Кинокомпания «Водород», Арт Пикчерс Студия / Art Pictures Studio Продолжительность: 02:21:41 Перевод: Не требуется Формат: MKV Качество: WEBRip-AVC Видео: MPEG-4 AVC, 720x302, 24.000 fps, 1350 Kbps, 0.248 bit/pixel Аудио: 48 kHz, AC3, 2/0 ch, ~192.00 kbps avg RUS
[+] МИ General Unique ID : 181728586601993709465277277397034033881 (0x88B7A7154D59183FB0342158193962D9) Complete name : D:Natalia2024.3Sto.let.tomy.vpered.2024.WEB-DLAVC.ExKinoRay.mkv Format : Matroska Format version : Version 2 File size : 1.46 GiB Duration : 2 h 21 min Overall bit rate : 1 471 kb/s Movie name : Сто лет тому вперёд (2024) from ExKinoRay Encoded date : UTC 2024-07-10 02:57:56 Writing application : mkvmerge v5.6.0 ('Kenya Kane') built on May 27 2012 16:44:04 Writing library : libebml v1.2.3 + libmatroska v1.3.0 Video ID : 1 Format : AVC Format/Info : Advanced Video Codec Format profile : High@L4.1 Format settings, CABAC : Yes Format settings, ReFrames : 10 frames Codec ID : V_MPEG4/ISO/AVC Duration : 2 h 21 min Bit rate : 1 278 kb/s Width : 720 pixels Height : 302 pixels Display aspect ratio : 2.40:1 Frame rate mode : Constant Frame rate : 24.000 FPS Color space : YUV Chroma subsampling : 4:2:0 Bit depth : 8 bits Scan type : Progressive Bits/(Pixel*Frame) : 0.245 Stream size : 1.24 GiB (85%) Writing library : x264 core 164 r3107+58M ae98796 t_mod_New Encoding settings : cabac=1 / ref=10 / deblock=1:-2:-2 / analyse=0x3:0x133 / me=umh / subme=10 / psy=1 / fade_compensate=0.00 / psy_rd=1.00:0.00 / mixed_ref=1 / me_range=32 / chroma_me=1 / trellis=2 / 8x8dct=1 / cqm=0 / deadzone=21,11 / fast_pskip=0 / chroma_qp_offset=-2 / threads=9 / lookahead_threads=2 / sliced_threads=0 / nr=0 / decimate=0 / interlaced=0 / bluray_compat=0 / constrained_intra=0 / fgo=0 / bframes=10 / b_pyramid=2 / b_adapt=2 / b_bias=0 / direct=3 / weightb=1 / open_gop=0 / weightp=2 / keyint=240 / keyint_min=24 / scenecut=40 / intra_refresh=0 / rc=2pass / mbtree=0 / bitrate=1278 / ratetol=1.0 / qcomp=0.60 / qpmin=0:0:0 / qpmax=69:69:69 / qpstep=4 / cplxblur=20.0 / qblur=0.5 / ip_ratio=1.40 / pb_ratio=1.30 / aq=1:1.00 / aq-sensitivity=10.00 / aq-factor=1.00:1.00:1.00 / aq2=0 / aq3=0 Default : Yes Forced : No Audio ID : 2 Format : AC-3 Format/Info : Audio Coding 3 Mode extension : CM (complete main) Format settings, Endianness : Big Codec ID : A_AC3 Duration : 2 h 21 min Bit rate mode : Constant Bit rate : 192 kb/s Channel(s) : 2 channels Channel positions : Front: L R Sampling rate : 48.0 kHz Frame rate : 31.250 FPS (1536 spf) Compression mode : Lossy Stream size : 195 MiB (13%) Language : Russian Default : Yes Forced : No
[+] Скриншоты
Релиз от: Автор релиза:

Всего файлов в раздаче: 1 
Sto.let.tomy.vpered.2024.WEB-DLAVC.ExKinoRay.mkv1.46 GB

Похожие раздачи по запросу - Сто
2024-07-13 magnet Сто лет тому вперёд (2024) WEBRip 720p от DoMiNo & селезень 3.72 GB ↑ 0 ↓ 6
2024-07-10 magnet Сто лет тому вперёд (2024) WEBRip от Generalfilm | КПК 538.33 MB ↑ 0 ↓ 0
2024-07-10 magnet Сто лет тому вперёд (2024) WEBRip-AVC от DoMiNo & селезень 2.04 GB ↑ 0 ↓ 0
2024-07-10 magnet Сто лет тому вперёд (2024) WEBRip от AR-Team 1.46 GB ↑ 2 ↓ 0
2024-07-10 magnet Сто лет тому вперёд (2024) WEBRip-HEVC 2160p | 4K | SDR 12.50 GB ↑ 3 ↓ 9
2024-07-10 magnet Сто лет тому вперёд (2024) WEBRip 720p от ExKinoRay 3.91 GB ↑ 0 ↓ 1
2024-07-10 magnet Сто лет тому вперёд (2024) WEBRip 1080p от селезень 5.66 GB ↑ 4 ↓ 52

Комментарии


Зарегистрируйтесь чтобы добавить комментарий
Торрент клиент
byTorrent - программа для загрузки торрент-файлов.

Скачать byTorrent.exe (1,5 МБ)

Скачать byTorrent.zip (0,6 МБ)

Поддержи torrent.by
российских рублей
(300 российских рублей это 4$)

Обратная связь rss

End game ©