↑↓torrent.by
Поиск
Логин:  Регистрация
Пароль:

Сто лет тому вперёд (2024) WEBRip от AR-Team

download Скачать торрент-файл   magnet Магнитная ссылка Размер: 1.46 GB Раздают: 1 Качают: 0 Добавлен: temaxa 2024-07-10 12:50
Пиры будут получены из сети DHT
Последний сидер был замечен сегодня в 18:28
Сто лет тому вперёд (2024) WEBRip
Производство: Россия / Кинокомпания «Водород», «Россия 1», Арт Пикчерс Студия Жанр: фантастика, приключения Режиссер: Александр Андрющенко Актеры: Даша Верещагина, Марк Эйдельштейн, Константин Хабенский, Виктория Исакова, Фёдор Бондарчук, Александр Петров, Юра Борисов, Софа Цибирева, Матвей Астраханцев, Кирилл Митрофанов Описание: Они живут в разных мирах. Коля Герасимов — в сегодняшней Москве, Алиса Селезнева — на сто лет позже. Коля — обычный парень, ему нет дела до будущего. Алису не отпускает прошлое: она пытается найти маму, которую потеряла, когда была совсем ребенком. Встреча Алисы и Коли станет началом невероятных приключений, в которых им предстоит отвоевать у космических пиратов Вселенную, восстановить ход времени и обрести самое дорогое: любовь и дружбу. Возраст: 6+ (зрителям, достигшим 6 лет) Релиз от: AR-Team Продолжительность: 02:21:41 Качество видео: WEBRip Язык озвучки: Русский Субтитры: Отсутствуют Видео: XviD, 720x304, ~1278 Кbps Аудио: AC3, 2 ch, 192 Kbps
[+] MediaInfo:
General
Complete name                  : Sto.let.tomu.vpered.2024.WEBRip.AR-Team.avi
Format                         : AVI
Format/Info                    : Audio Video Interleave
Format settings                : BitmapInfoHeader / WaveFormatEx
File size                      : 1.46 GiB
Duration                       : 2 h 21 min
Overall bit rate               : 1 480 kb/s
Frame rate                     : 24.000 FPS
Writing application            : VirtualDubMod 1.5.10.3 | (build 2550/release)
Writing library                : VirtualDubMod build 2550/release

Video
ID                             : 0
Format                         : MPEG-4 Visual
Format profile                 : Advanced Simple@L5
Format settings                : BVOP1 / Custom Matrix
Format settings, BVOP          : 1
Format settings, QPel          : No
Format settings, GMC           : No warppoints
Format settings, Matrix        : Custom
Codec ID                       : XVID
Codec ID/Hint                  : XviD
Duration                       : 2 h 21 min
Bit rate                       : 1 279 kb/s
Width                          : 720 pixels
Height                         : 304 pixels
Display aspect ratio           : 2.35:1
Frame rate                     : 24.000 FPS
Color space                    : YUV
Chroma subsampling             : 4:2:0
Bit depth                      : 8 bits
Scan type                      : Progressive
Compression mode               : Lossy
Bits/(Pixel*Frame)             : 0.243
Stream size                    : 1.27 GiB (86%)
Writing library                : XviD 73

Audio
ID                             : 1
Format                         : AC-3
Format/Info                    : Audio Coding 3
Commercial name                : Dolby Digital
Codec ID                       : 2000
Duration                       : 2 h 21 min
Bit rate mode                  : Constant
Bit rate                       : 192 kb/s
Channel(s)                     : 2 channels
Channel layout                 : L R
Sampling rate                  : 48.0 kHz
Frame rate                     : 31.250 FPS (1536 SPF)
Compression mode               : Lossy
Stream size                    : 195 MiB (13%)
Alignment                      : Split across interleaves
Interleave, duration           : 42  ms (1.00 video frame)
Interleave, preload duration   : 500  ms
Service kind                   : Complete Main
Dialog Normalization           : -31 dB
dialnorm_Average               : -31 dB
dialnorm_Minimum               : -31 dB
dialnorm_Maximum               : -31 dB
Скриншоты:

Всего файлов в раздаче: 1 
Sto.let.tomu.vpered.2024.WEBRip.AR-Team.avi1.46 GB

Похожие раздачи по запросу - Сто
2024-07-13 magnet Сто лет тому вперёд (2024) WEBRip 720p от DoMiNo & селезень 3.72 GB ↑ 1 ↓ 4
2024-07-10 magnet Сто лет тому вперёд (2024) WEBRip от Generalfilm | КПК 538.33 MB ↑ 0 ↓ 0
2024-07-10 magnet Сто лет тому вперёд (2024) WEBRip-AVC от DoMiNo & селезень 2.04 GB ↑ 0 ↓ 0
2024-07-10 magnet Сто лет тому вперёд (2024) WEBRip-HEVC 2160p | 4K | SDR 12.50 GB ↑ 2 ↓ 7
2024-07-10 magnet Сто лет тому вперёд (2024) WEBRip 720p от ExKinoRay 3.91 GB ↑ 0 ↓ 1
2024-07-10 magnet Сто лет тому вперёд (2024) WEBRip-AVC от ExKinoRay 1.46 GB ↑ 1 ↓ 2
2024-07-10 magnet Сто лет тому вперёд (2024) WEBRip 1080p от селезень 5.66 GB ↑ 4 ↓ 17

Комментарии


Зарегистрируйтесь чтобы добавить комментарий
Торрент клиент
byTorrent - программа для загрузки торрент-файлов.

Скачать byTorrent.exe (1,5 МБ)

Скачать byTorrent.zip (0,6 МБ)

Поддержи torrent.by
российских рублей
(300 российских рублей это 4$)

Обратная связь rss

End game ©