↑↓torrent.by
Поиск
Логин:  Регистрация
Пароль:

Территория зла / Land of Bad (2024) BDRip от AR-Team | D

download Скачать торрент-файл   magnet Магнитная ссылка Размер: 1.46 GB Добавлен: temaxa 2024-07-10 14:51
Пиры будут получены из сети DHT
Последний сидер был замечен 2024-07-16 22:36
Территория зла / Land of Bad (2024) BDRip
Производство: США / Volition Media Partners, Broken Open Pictures, HFG Жанр: боевик, триллер Режиссер: Уильям Юбэнк Актеры: Лиам Хемсворт, Рассел Кроу, Люк Хемсворт, Рики Уиттл, Майло Вентимилья, Chika Ikogwe, Дэниэл Макферсон, Роберт Рабия, Джек Финстерер, Крис Мастерс Мах Описание: Отряд американского спецназа тайно высаживается на территорию Филиппин для выполнения секретной миссии по спасению важного заложника. С базы поддержку с воздуха осуществляют оператор беспилотника Рипер и его напарница. Вскоре ситуация принимает неожиданный оборот, и бойцы вынуждены вступить в бой с превосходящими силами противника. После ожесточённого боя в живых остаётся лишь сержант Кинни - молодой морпех, отвечающий за связь с Рипером и координацию его действий. Для Кинни это лишь вторая боевая миссия, и теперь парню придётся в одиночку пробираться по вражеской территории к точке эвакуации, а Рипер становится его единственной надеждой на спасение. Возраст: 18+ (зрителям, достигшим 18 лет. запрещено для детей) Рейтинг MPAA: R (лицам до 17 лет обязательно присутствие взрослого) Релиз от: AR-Team Продолжительность: 01:53:37 Качество видео: BDRip Перевод: Дублированный (Мосфильм-Мастер) Язык озвучки: Русский Субтитры: Русские (Forced), английские (Full, SDH) - отдельно Видео: XviD, 720x304, ~1385 Kbps Аудио AC3, 6 ch, 448 Kbps - Русский
[+] MediaInfo:
General
Complete name                  : Land.of.Bad.2024.BDRip.AR-Team.avi
Format                         : AVI
Format/Info                    : Audio Video Interleave
Format settings                : BitmapInfoHeader / WaveFormatEx
File size                      : 1.46 GiB
Duration                       : 1 h 53 min
Overall bit rate               : 1 843 kb/s
Frame rate                     : 23.976 FPS
Writing application            : VirtualDubMod 1.5.10.3 (build 2550/release)
Writing library                : VirtualDubMod build 2550/release

Video
ID                             : 0
Format                         : MPEG-4 Visual
Format profile                 : Advanced Simple@L5
Format settings                : BVOP1 / Custom Matrix
Format settings, BVOP          : 1
Format settings, QPel          : No
Format settings, GMC           : No warppoints
Format settings, Matrix        : Custom
Codec ID                       : XVID
Codec ID/Hint                  : XviD
Duration                       : 1 h 53 min
Bit rate                       : 1 386 kb/s
Width                          : 720 pixels
Height                         : 304 pixels
Display aspect ratio           : 2.35:1
Frame rate                     : 23.976 (24000/1001) FPS
Color space                    : YUV
Chroma subsampling             : 4:2:0
Bit depth                      : 8 bits
Scan type                      : Progressive
Compression mode               : Lossy
Bits/(Pixel*Frame)             : 0.264
Stream size                    : 1.10 GiB (75%)
Writing library                : XviD 73

Audio
ID                             : 1
Format                         : AC-3
Format/Info                    : Audio Coding 3
Commercial name                : Dolby Digital
Codec ID                       : 2000
Duration                       : 1 h 53 min
Bit rate mode                  : Constant
Bit rate                       : 448 kb/s
Channel(s)                     : 6 channels
Channel layout                 : L R C LFE Ls Rs
Sampling rate                  : 48.0 kHz
Frame rate                     : 31.250 FPS (1536 SPF)
Compression mode               : Lossy
Stream size                    : 364 MiB (24%)
Alignment                      : Split across interleaves
Interleave, duration           : 42  ms (1.00 video frame)
Interleave, preload duration   : 500  ms
Service kind                   : Complete Main
Dialog Normalization           : -31 dB
cmixlev                        : -3.0 dB
surmixlev                      : -3 dB
dialnorm_Average               : -31 dB
dialnorm_Minimum               : -31 dB
dialnorm_Maximum               : -31 dB
Скриншоты:

Всего файлов в раздаче: 4 
Land.of.Bad.2024.BDRip.AR-Team.avi1.46 GB
Land.of.Bad.2024.BDRip.AR-Team_track7_[rus].srt2.65 kB
Land.of.Bad.2024.BDRip.AR-Team_track8_[eng].srt96.58 kB
Land.of.Bad.2024.BDRip.AR-Team_track9_[eng].srt121.90 kB

Похожие раздачи по запросу - Территория
2024-07-12 magnet Территория зла / Land of Bad (2024) BDRip-AVC от DoMiNo & селезень | D 1.89 GB ↑ 0 ↓ 0
2024-07-12 magnet Территория зла / Land of Bad (2024) BDRip-HEVC 1080p от HEVC-CLUB | D 5.68 GB ↑ 0 ↓ 5
2024-07-10 magnet Территория зла / Land of Bad (2024) BDRip от DoMiNo & селезень | D 1.46 GB ↑ 0 ↓ 0
2024-07-10 magnet Территория зла / Land of Bad (2024) BDRip 720p от DoMiNo & селезень | D, P2, A 5.99 GB ↑ 0 ↓ 3
2024-07-10 magnet Территория зла / Land of Bad (2024) BDRip 1080p от MegaPeer | D 9.97 GB ↑ 0 ↓ 1
2024-07-09 magnet Территория зла / Land of Bad (2024) BDRip от MegaPeer | D 1.46 GB ↑ 0 ↓ 0
2024-06-20 magnet Сара Брукс - Территория чудовищ. Путеводитель для осторожных туристов (2024) FB2 1К2.16 MB ↑ 0 ↓ 0

Комментарии


Зарегистрируйтесь чтобы добавить комментарий
Торрент клиент
byTorrent - программа для загрузки торрент-файлов.

Скачать byTorrent.exe (1,5 МБ)

Скачать byTorrent.zip (0,6 МБ)

Поддержи torrent.by
российских рублей
(300 российских рублей это 4$)

Обратная связь rss

End game ©