↑↓torrent.by
Поиск
Логин:  Регистрация
Пароль:

Нечисть в Сеуле / The Sin (2024) WEB-DLRip от AR-Team | L

download Скачать торрент-файл   magnet Магнитная ссылка Размер: 1.46 GB Добавлен: temaxa 2024-07-10 16:02
Пиры будут получены из сети DHT
Последний сидер был замечен 2024-07-12 17:16
Нечисть в Сеуле / The Sin (2024) WEB-DLRip
Производство: Корея Южная / Lotte Entertainment Жанр: Ужасы Режиссер: Хан Дон-сок Актеры: Ким Юн-хе, Сон И-джэ, Пак Чи-хун, Ли Сан-а Описание: Си Ён была выбрана на главную роль в экспериментальном художественном фильме, посвященном ее танцевальной специальности. Вместе со своей подругой по колледжу Че Юн они исполняют геометрические танцы в рамках шаманской церемонии под руководством режиссера фильма. Однако их мир переворачивается, когда член съемочной группы внезапно падает с крыши, но его, казалось бы, безжизненное тело начинает двигаться и оживать. Возраст: 18+ (зрителям, достигшим 18 лет. запрещено для детей) Релиз от: AR-Team Продолжительность: 01:42:53 Качество видео: WEB-DLRip Перевод: Многоголосый любительский (Head Pack Films) Язык озвучки: Русский Субтитры: Отсутствуют Видео: XviD, 720x304, ~1833 Kbps Аудио: AC3, 2 ch, 192 Kbps - Русский
[+] MediaInfo:
General
Complete name: The.Sin.2024.WEB-DLRip.AR-Team.avi
Format: AVI
Format/Info: Audio Video Interleave
Format settings: BitmapInfoHeader / WaveFormatEx
File size: 1.46 GiB
Duration: 1 h 42 min
Overall bit rate: 2 037 kb/s
Frame rate: 29.970 FPS
Writing application: VirtualDubMod 1.5.10.3 | (build 2550/release)
Writing library: VirtualDubMod build 2550/release

Video
ID: 0
Format: MPEG-4 Visual
Format profile: Advanced Simple@L5
Format settings: BVOP1 / Custom Matrix
Format settings, BVOP: 1
Format settings, QPel: No
Format settings, GMC: No warppoints
Format settings, Matrix: Custom
Codec ID: XVID
Codec ID/Hint: XviD
Duration: 1 h 42 min
Bit rate: 1 833 kb/s
Width: 720 pixels
Height: 304 pixels
Display aspect ratio: 2.35:1
Frame rate: 29.970 (30000/1001) FPS
Color space: YUV
Chroma subsampling: 4:2:0
Bit depth: 8 bits
Scan type: Progressive
Compression mode: Lossy
Bits/(Pixel*Frame): 0.279
Stream size: 1.32 GiB (90%)
Writing library: XviD 73

Audio
ID: 1
Format: AC-3
Format/Info: Audio Coding 3
Commercial name: Dolby Digital
Codec ID: 2000
Duration: 1 h 42 min
Bit rate mode: Constant
Bit rate: 192 kb/s
Channel(s): 2 channels
Channel layout: L R
Sampling rate: 48.0 kHz
Frame rate: 31.250 FPS (1536 SPF)
Compression mode: Lossy
Stream size: 141 MiB (9%)
Alignment: Split across interleaves
Interleave, duration: 33 ms (1.00 video frame)
Interleave, preload duration: 500 ms
Service kind: Complete Main
Dialog Normalization: -31 dB
dialnorm_Average: -31 dB
dialnorm_Minimum: -31 dB
dialnorm_Maximum: -31 dB
Скриншоты:

Всего файлов в раздаче: 1 
The.Sin.2024.WEB-DLRip.AR-Team.avi1.46 GB

Похожие раздачи по запросу - Нечисть
2024-03-13 magnet Изгой: Нечисть [S02] (2024) WEB-DLRip от Files-x 2.10 GB ↑ 0 ↓ 0
2024-03-05 magnet Изгой: Нечисть [S02] (2024) WEB-DLRip-AVC от Files-x 2.09 GB ↑ 0 ↓ 0
2024-03-05 magnet Изгой: Нечисть [02х01 из 04] (2024) WEB-DLRip-AVC от Files-x 545.24 MB ↑ 0 ↓ 0
2024-03-03 magnet Изгой. Нечисть / Сезон: 2 / Серии: 1-4 из 4 [2023, детектив, SATip-AVC] от Aleksan55 2.07 GB ↑ 1 ↓ 0

Комментарии


Зарегистрируйтесь чтобы добавить комментарий
Торрент клиент
byTorrent - программа для загрузки торрент-файлов.

Скачать byTorrent.exe (1,5 МБ)

Скачать byTorrent.zip (0,6 МБ)

Поддержи torrent.by
российских рублей
(300 российских рублей это 4$)

Обратная связь rss

End game ©